<?xml version="1.0" standalone="no"?>
<!DOCTYPE svg PUBLIC "-//W3C//DTD SVG 1.1//EN" "http://www.w3.org/Graphics/SVG/1.1/DTD/svg11.dtd" >
<svg xmlns="http://www.w3.org/2000/svg" xmlns:xlink="http://www.w3.org/1999/xlink" version="1.1">
<metadata></metadata>
<defs>
<font id="transatstandard" horiz-adv-x="1640" >
<font-face units-per-em="2048" ascent="1485" descent="-563" />
<missing-glyph horiz-adv-x="481" />
<glyph unicode="&#xfb01;" horiz-adv-x="1026" d="M74 705v16l16 100h109v334q0 76 22 136.5t58.5 96t85 57.5t102 21t108.5 -14l-14 -117q-86 24 -153 -22.5t-66 -159.5v-332h217v-116h-217v-705h-143v705h-125zM688 1157q0 47 34.5 82t80.5 35q49 0 83 -34.5t34 -82.5q0 -49 -33.5 -82t-83.5 -33q-47 0 -81 33t-34 82z M733 0v821h144v-821h-144z" />
<glyph unicode="&#xfb02;" horiz-adv-x="1058" d="M74 705v16l16 100h109v334q0 76 22 136.5t58.5 96t85 57.5t102 21t108.5 -14l-14 -117q-86 24 -153 -22.5t-66 -159.5v-332h217v-116h-217v-705h-143v705h-125zM766 0v1438l129 24h14v-1462h-143z" />
<glyph unicode="&#xfb03;" horiz-adv-x="1560" d="M74 705v16l16 100h109v293q0 76 22 136.5t58.5 96t85 57.5t102 21t108.5 -14l-14 -117q-86 24 -153 -22.5t-66 -159.5v-291h393v334q0 76 22 136.5t59 96t85.5 57.5t102 21t108.5 -14l-14 -117q-86 24 -153 -22.5t-66 -159.5v-332h217v-116h-217v-705h-144v705h-393v-705 h-143v705h-125zM1223 1157q0 47 34 82t80 35q49 0 83 -34.5t34 -82.5q0 -49 -33.5 -82t-83.5 -33q-47 0 -80.5 33t-33.5 82zM1268 0v821h143v-821h-143z" />
<glyph unicode="&#xfb04;" horiz-adv-x="1595" d="M74 705v16l16 100h109v293q0 76 22 136.5t58.5 96t85 57.5t102 21t108.5 -14l-14 -117q-86 24 -153 -22.5t-66 -159.5v-291h393v334q0 76 22 136.5t59 96t85.5 57.5t102 21t108.5 -14l-14 -117q-86 24 -153 -22.5t-66 -159.5v-332h217v-116h-217v-705h-144v705h-393v-705 h-143v705h-125zM1300 0v1438l130 24h14v-1462h-144z" />
<glyph horiz-adv-x="0" />
<glyph horiz-adv-x="682" />
<glyph unicode=" "  horiz-adv-x="481" />
<glyph unicode="&#x09;" horiz-adv-x="481" />
<glyph unicode="&#xa0;" horiz-adv-x="481" />
<glyph unicode="!" horiz-adv-x="577" d="M162 104q0 54 36.5 91.5t88.5 37.5q54 0 91.5 -37.5t37.5 -91.5t-37 -89t-92 -35q-53 0 -89 35t-36 89zM180 1333h215l-71 -946h-70z" />
<glyph unicode="&#x22;" horiz-adv-x="702" d="M86 1438h209l-74 -561h-61zM406 1438h208l-73 -561h-62z" />
<glyph unicode="#" horiz-adv-x="1232" d="M76 362v125h235l95 369h-203v127h233l90 350h140l-91 -350h244l90 350h140l-93 -350h199v-127h-227q-66 -246 -97 -369h199v-125h-227l-88 -362h-142q17 64 47 186.5t44 175.5h-242l-92 -362h-142l93 362h-205zM453 487h243l95 369h-244z" />
<glyph unicode="$" horiz-adv-x="978" d="M113 92l71 111q45 -30 61 -39.5t54.5 -28t77 -25t88.5 -6.5q121 0 184.5 64.5t63.5 150.5q0 87 -64.5 156.5t-202.5 159.5q-141 93 -190 137q-112 100 -122 228q-1 14 -1 28q0 55 17.5 108t51.5 99.5t91 78.5t129 40v258h135v-256q134 -14 250 -84l-51 -119 q-53 28 -77.5 40t-70 23t-96.5 11q-111 0 -168 -56.5t-57 -150.5q0 -28 13.5 -56t34.5 -52t52.5 -49.5t62 -47t68.5 -46.5q15 -10 23 -15q170 -107 248.5 -207t74.5 -221q-6 -151 -91.5 -240t-213.5 -111v-251h-135v249q-115 8 -182 37.5t-129 81.5z" />
<glyph unicode="%" horiz-adv-x="1511" d="M80 1042q0 139 93.5 224.5t219.5 85.5t216.5 -85.5t90.5 -224.5t-91.5 -224t-217.5 -85t-218.5 85t-92.5 224zM160 31l1079 1339l92 -74l-1075 -1337zM207 1042q0 -82 52 -143t134 -61t131 60.5t49 143.5q0 86 -49 146.5t-133 60.5q-81 0 -132.5 -61t-51.5 -146zM813 289 q0 139 92.5 224t218.5 85q127 0 217.5 -84.5t90.5 -224.5q0 -138 -91.5 -223.5t-218.5 -85.5q-125 0 -217 86t-92 223zM938 289q0 -81 53 -143t135 -62t130.5 61t48.5 144q0 85 -48.5 146t-132.5 61q-81 0 -133.5 -62t-52.5 -145z" />
<glyph unicode="&#x26;" horiz-adv-x="1290" d="M97 395q20 149 147 254l143 123l-49 64q-84 120 -74 245q11 132 105.5 206.5t218.5 74.5q122 0 208 -69t119 -175l-124 -49q-61 162 -199 162q-78 0 -127 -47t-55 -119q-3 -44 9 -81.5t23 -53.5t39 -51l408 -525l215 193l90 -101l-217 -198l192 -248h-184l-111 147 l-90 -75q-48 -43 -128 -68.5t-166 -28t-171 30t-137 98.5q-105 142 -85 291zM243.5 379.5q-11.5 -94.5 53.5 -184.5q74 -90 192.5 -89t210.5 82l84 70l-317 399l-133 -116q-79 -67 -90.5 -161.5z" />
<glyph unicode="'" horiz-adv-x="382" d="M86 1438h209l-74 -561h-61z" />
<glyph unicode="(" horiz-adv-x="778" d="M154 604q0 258 115.5 489.5t310.5 387.5l73 -78q-340 -353 -340 -799q0 -134 29.5 -262.5t80.5 -233.5t108 -187t122 -150l-73 -78q-195 167 -310.5 409t-115.5 502z" />
<glyph unicode=")" horiz-adv-x="778" d="M123 -229q65 68 122 150t108 187t80.5 233.5t29.5 262.5q0 446 -340 799l74 78q195 -156 310.5 -387.5t115.5 -489.5q0 -260 -115.5 -502t-310.5 -409z" />
<glyph unicode="*" horiz-adv-x="815" d="M113 1028l223 105l-223 102l59 102l199 -139l-21 240h115l-21 -240l201 139l57 -102l-223 -105l223 -102l-57 -98l-201 137l21 -238h-115l21 238l-199 -137z" />
<glyph unicode="+" horiz-adv-x="942" d="M92 635v127h314v313h133v-313h311v-127h-311v-313h-133v313h-314z" />
<glyph unicode="," horiz-adv-x="485" d="M90 -303l72 528h207l4 -24l-226 -518z" />
<glyph unicode="-" horiz-adv-x="686" d="M92 391v137l502 70v-137z" />
<glyph unicode="." horiz-adv-x="479" d="M113 104q0 54 36.5 91.5t88.5 37.5q54 0 91.5 -37.5t37.5 -91.5t-37 -89t-92 -35q-53 0 -89 35t-36 89z" />
<glyph unicode="/" horiz-adv-x="778" d="M-23 -264l650 1753l125 -49l-652 -1753z" />
<glyph unicode="0" horiz-adv-x="1193" d="M74 670q0 196 63 352.5t183.5 248t277.5 91.5t277 -91.5t182.5 -248t62.5 -352.5t-62.5 -354t-182.5 -251.5t-277 -93.5t-277.5 93.5t-183.5 251.5t-63 354zM231 670q0 -159 45.5 -289t130 -206.5t191.5 -76.5t190 76.5t126.5 206t43.5 289.5q0 161 -44 290t-126.5 204 t-189.5 75t-191.5 -75t-130 -204.5t-45.5 -289.5z" />
<glyph unicode="1" horiz-adv-x="679" d="M115 1180l325 170h29v-1350h-152v1124l-143 -73z" />
<glyph unicode="2" horiz-adv-x="1064" d="M61 27q42 40 113.5 106t111 103t100.5 95.5t95.5 94.5t82 87t74 87.5t57 82t45.5 82.5t25.5 78t10.5 79q0 77 -25 137t-67 96t-92 54.5t-103 19.5q-86 0 -162 -42.5t-120 -99.5h-23l-75 93q67 79 169 130.5t226 51.5q75 0 147.5 -25.5t135 -75.5t101 -135.5t38.5 -193.5 q1 -74 -17 -141t-53.5 -133t-105 -149.5t-151.5 -168t-214 -211.5h569v-129h-880z" />
<glyph unicode="3" horiz-adv-x="1058" d="M96 68l45 114l25 2q122 -90 305 -90q59 0 117 19t107.5 55.5t80.5 97t31 135.5q0 100 -55.5 175t-156 105.5t-241.5 -1.5l-20 25l346 497h-539v131h756l14 -24l-358 -518q72 5 143 -19.5t129.5 -72t94.5 -125t36 -171.5q0 -194 -127.5 -313t-336.5 -119q-38 0 -71.5 1.5 t-63.5 6t-52 7.5t-47.5 11.5t-38.5 12t-36.5 14.5t-29.5 14t-30 16t-27 14z" />
<glyph unicode="4" horiz-adv-x="1153" d="M31 285l805 1071l43 -13v-972h217v-127h-217v-244h-154v244h-664zM266 371h459v614z" />
<glyph unicode="5" horiz-adv-x="1062" d="M96 72l43 116h25q43 -36 121.5 -64t181.5 -28q90 0 166 36.5t125 110t49 171.5q0 143 -90.5 224t-222.5 81q-93 0 -174 -38.5t-125 -82.5l-33 14l74 721h649v-129h-518l-43 -422q53 31 158 43.5t190 -10.5q120 -32 202.5 -140t83.5 -261q1 -88 -29 -166.5t-88 -141 t-152 -99t-212 -36.5q-140 0 -237.5 31.5t-143.5 69.5z" />
<glyph unicode="6" horiz-adv-x="1107" d="M96 469q0 179 51 330.5t131 251t182.5 171t203 104.5t194.5 36l29 -117l-21 -18q-134 -5 -262 -79.5t-217 -202.5t-108 -277q50 78 136.5 115.5t178.5 37.5q178 0 297 -116t119 -299q0 -190 -128.5 -312.5t-324.5 -122.5q-204 0 -332 137t-129 361zM258 401 q0 -126 86.5 -215.5t212.5 -89.5q130 0 214.5 89t84.5 216q0 128 -83 216t-210 88q-132 0 -218.5 -88.5t-86.5 -215.5z" />
<glyph unicode="7" horiz-adv-x="1001" d="M104 1204v129h824l18 -26l-551 -1307h-172l522 1204h-641z" />
<glyph unicode="8" horiz-adv-x="1132" d="M94 393q0 129 76 232.5t192 132.5q-163 85 -163 272q0 142 103.5 236t266.5 94q160 0 263.5 -94t103.5 -236q0 -185 -166 -270q116 -29 192 -133.5t76 -233.5q0 -184 -132.5 -303t-340.5 -119q-205 0 -338 119.5t-133 302.5zM250 395q0 -127 90 -212t229 -85 q138 0 226 85t88 212q0 128 -90 211.5t-228 83.5q-141 0 -228 -83t-87 -212zM340 1018q0 -88 65.5 -153.5t163.5 -65.5q97 0 160.5 65.5t63.5 153.5q0 90 -65 154.5t-161 64.5q-98 0 -162.5 -64.5t-64.5 -154.5z" />
<glyph unicode="9" horiz-adv-x="1107" d="M96 928q0 189 129.5 311.5t325.5 122.5q204 0 331 -137t128 -363q0 -150 -35.5 -280.5t-95.5 -225t-136.5 -168.5t-163 -120t-169.5 -70t-160 -27l-29 115l19 20q135 5 263.5 79.5t217 202.5t106.5 276q-49 -77 -135.5 -115.5t-177.5 -38.5q-178 0 -298 116.5t-120 301.5 zM250 932q0 -128 84 -216.5t211 -88.5q131 0 218 89t87 216q0 125 -87 214t-214 89q-128 0 -213.5 -89t-85.5 -214z" />
<glyph unicode=":" horiz-adv-x="479" d="M113 104q0 54 36.5 91.5t88.5 37.5q54 0 91.5 -37.5t37.5 -91.5t-37 -89t-92 -35q-53 0 -89 35t-36 89zM113 715q0 54 36.5 91.5t88.5 37.5q54 0 91.5 -37.5t37.5 -91.5t-37.5 -89.5t-91.5 -35.5q-53 0 -89 35.5t-36 89.5z" />
<glyph unicode=";" horiz-adv-x="485" d="M76 -303l71 528h207l4 -24l-225 -518zM117 715q0 54 36.5 91.5t88.5 37.5q54 0 91.5 -37.5t37.5 -91.5t-37.5 -89.5t-91.5 -35.5q-53 0 -89 35.5t-36 89.5z" />
<glyph unicode="&#x3c;" horiz-adv-x="1071" d="M74 680v29l866 426v-150l-596 -289l596 -293v-149z" />
<glyph unicode="=" horiz-adv-x="991" d="M92 471v125h807v-125h-807zM92 797v127h807v-127h-807z" />
<glyph unicode="&#x3e;" horiz-adv-x="1071" d="M131 254v149l596 293l-596 289v150l866 -426v-29z" />
<glyph unicode="?" horiz-adv-x="831" d="M51 1171q16 29 42.5 58.5t68 60.5t102 50.5t129.5 19.5q150 0 256.5 -89.5t106.5 -232.5q0 -67 -18 -122t-46.5 -93.5t-63.5 -73.5l-70 -70t-63.5 -74t-46.5 -94.5t-18 -123.5h-113q-18 73 -4 138.5t45 112t72.5 94.5t78.5 87t63 89.5t26 101.5q0 99 -60.5 157t-148.5 58 q-152 0 -237 -138zM254 104q0 54 35.5 91.5t89.5 37.5t91.5 -37.5t37.5 -91.5q0 -55 -37 -89.5t-92 -34.5q-54 0 -89.5 34.5t-35.5 89.5z" />
<glyph unicode="@" horiz-adv-x="1767" d="M72 633q0 167 59.5 318t164.5 263t257 178t328 66q168 0 320.5 -61t260 -163t171 -238.5t63.5 -282.5q0 -110 -29 -196.5t-78.5 -139t-110 -80t-128.5 -27.5q-84 0 -159 42.5t-87 105.5q-38 -68 -106.5 -106.5t-155.5 -41.5q-140 -3 -234.5 98t-85.5 255q6 145 101 247.5 t239 106.5q84 3 151 -35t103 -108l58 94h71l-61 -371q-12 -73 38 -124.5t136 -51.5q44 0 84 18.5t74.5 56.5t54.5 104.5t20 152.5q0 123 -53 240t-144.5 207.5t-226 146t-286.5 55.5q-153 0 -284 -57.5t-220.5 -156t-140 -232t-50.5 -283.5q0 -152 50 -283.5t140.5 -227.5 t224.5 -151t294 -55q256 0 477 127l37 -90q-219 -133 -514 -133q-183 0 -338.5 64t-261 174t-164.5 258.5t-59 316.5zM657 621q-6 -103 50 -170.5t145 -65.5q89 3 148.5 74.5t64.5 173.5t-50.5 167t-144.5 62q-91 -3 -150 -69t-63 -172z" />
<glyph unicode="A" horiz-adv-x="1335" d="M12 0l645 1456h29l637 -1456h-168l-151 354h-670l-154 -354h-168zM387 479h559l-276 660z" />
<glyph unicode="B" horiz-adv-x="1150" d="M174 0v1434q139 22 248 22q78 0 145 -10t132 -35t110.5 -64.5t73.5 -103.5t28 -147q0 -94 -46 -170t-105 -111q133 -24 225 -131.5t92 -259.5q0 -100 -35.5 -178t-94 -126.5t-141.5 -80.5t-169.5 -44.5t-185.5 -12.5q-136 0 -277 18zM330 131q74 -12 151 -12q89 0 165 17 t139 52t99 96.5t36 143.5q0 79 -30.5 139t-82 94t-110 50t-122.5 16h-245v-596zM330 846h205q97 4 161 75t64 166q0 67 -28 115.5t-76 73.5t-99.5 36t-110.5 11q-61 0 -116 -10v-467z" />
<glyph unicode="C" horiz-adv-x="1452" d="M74 719q0 164 60.5 305.5t163 237t239 150t288.5 54.5q299 0 539 -204l-92 -115q-87 80 -202.5 132t-244.5 52q-120 0 -227.5 -47.5t-185.5 -128.5t-124 -195t-46 -241q0 -166 76.5 -306.5t211.5 -223.5t299 -83q126 0 249 49t210 126l90 -105q-50 -44 -94.5 -74.5 t-113 -63.5t-158.5 -50t-199 -17q-209 0 -379 100t-265 271t-95 377z" />
<glyph unicode="D" horiz-adv-x="1392" d="M174 0v1436q141 23 262 23q48 1 94 -3q158 -14 277.5 -48t206.5 -98.5t144.5 -134t92 -154.5t48.5 -158.5t14 -147.5q0 -47 -7.5 -97t-23.5 -106t-43 -109.5t-64 -107t-90 -100t-116.5 -87t-147 -68.5t-179.5 -44q-93 -16 -208 -16h-7q-120 0 -253 20zM330 129 q64 -8 126 -8q98 -1 188 19q148 32 259.5 105.5t177.5 195.5t66 274q0 108 -32 204.5t-97 177t-162.5 134t-229.5 75.5q-65 11 -138 10q-75 0 -158 -11v-1176z" />
<glyph unicode="E" horiz-adv-x="1081" d="M174 0v1438h758v-129h-604v-422h487v-129h-487v-629h637v-129h-791z" />
<glyph unicode="F" horiz-adv-x="1028" d="M174 0v1438h754v-129h-600v-422h481v-129h-481v-758h-154z" />
<glyph unicode="G" horiz-adv-x="1505" d="M74 719q0 158 60 298t161 238t238 154.5t288 56.5q307 0 543 -204q-15 -19 -45.5 -58t-46.5 -57q-208 184 -447 184q-119 0 -226.5 -47t-185 -128t-123.5 -194.5t-46 -240.5q0 -174 76.5 -315t214.5 -221.5t311 -80.5q110 0 218 38t175 94v264h-240v127h392v-451 q-128 -116 -262.5 -160.5t-286.5 -44.5q-170 0 -315 59.5t-243.5 161.5t-154 238.5t-55.5 288.5z" />
<glyph unicode="H" horiz-adv-x="1314" d="M174 0v1438h154v-551h659v551h154v-1438h-154v758h-659v-758h-154z" />
<glyph unicode="I" horiz-adv-x="501" d="M174 0v1438h154v-1438h-154z" />
<glyph unicode="J" horiz-adv-x="827" d="M127 -14v133h10q142 0 233 85q95 89 95 238v996h153v-998q0 -98 -31 -182t-90.5 -147t-154.5 -97q-83 -29 -184 -29q-15 0 -31 1z" />
<glyph unicode="K" horiz-adv-x="1214" d="M174 0v1438h156v-643l590 643h182l-617 -686l676 -752h-203l-628 698v-698h-156z" />
<glyph unicode="L" horiz-adv-x="978" d="M174 0v1438h154v-1309h575v-129h-729z" />
<glyph unicode="M" horiz-adv-x="1515" d="M174 0v1446l27 10l559 -590l555 590l26 -10v-1446h-151v1116l-420 -452h-25l-417 452v-1116h-154z" />
<glyph unicode="N" horiz-adv-x="1341" d="M174 0v1442l23 14l821 -612v594h149v-1438h-149v659l-696 515v-1174h-148z" />
<glyph unicode="O" d="M74 717q0 210 96 381t267 269.5t382 98.5q158 0 297 -58t238 -157.5t156 -238t57 -295.5q0 -207 -97 -378t-269 -269.5t-382 -98.5q-158 0 -297 58t-237 157.5t-154.5 237.5t-56.5 293zM240 717q0 -131 46 -246t124 -194.5t184.5 -125t224.5 -45.5t224.5 45.5t185.5 125 t125.5 194.5t46.5 246t-46.5 246.5t-125.5 195.5t-185.5 126t-224.5 46q-158 0 -290.5 -78t-210.5 -219.5t-78 -316.5z" />
<glyph unicode="P" horiz-adv-x="1075" d="M174 0v1430q126 28 238 28q50 0 96 -5q152 -18 262 -79t172 -167t62 -240q0 -171 -92 -297t-245 -184q-120 -45 -260 -45q-39 0 -79 3v-444h-154zM328 584q38 -4 74 -3q77 -1 144 15q98 24 163.5 76t101 127.5t35.5 167.5q0 177 -143 279q-104 74 -255 73q-57 0 -120 -10 v-725z" />
<glyph unicode="Q" d="M74 717q0 156 56.5 294.5t154.5 238.5t237 158t297 58t297 -58t238 -158t156 -238.5t57 -294.5q0 -195 -88 -356.5t-240 -256.5q25 -32 147 -184q-17 -17 -53.5 -45.5t-52.5 -44.5l-160 201q-146 -60 -301 -60q-211 0 -382 98t-267 268.5t-96 379.5zM240 717 q0 -131 46 -246t124 -194.5t184.5 -125t224.5 -45.5q113 0 203 37l-148 187l107 88l160 -201q119 75 189.5 207t70.5 293q0 131 -46.5 246.5t-125.5 195.5t-185.5 126t-224.5 46q-158 0 -290.5 -78t-210.5 -219.5t-78 -316.5z" />
<glyph unicode="R" horiz-adv-x="1175" d="M174 0v1430q144 28 263 28q99 0 181 -20q180 -42 274.5 -159t94.5 -292q0 -124 -63 -240t-187 -180l414 -567h-195l-364 510q-71 -15 -151 -15q-54 0 -113 7v-502h-154zM328 643q56 -9 107 -9q85 0 157 24q115 38 176 124t61 203q0 82 -32.5 150t-96.5 115 q-62 46 -156 62q-40 7 -86 8q-60 0 -130 -13v-664z" />
<glyph unicode="S" horiz-adv-x="1036" d="M100 102l62 123q169 -116 336 -116q128 0 205 68.5t77 152.5q0 46 -15 87t-37.5 72.5t-65 66.5t-82 61t-103.5 65q-70 41 -118 74t-95 74.5t-74.5 82t-44 92t-16.5 109.5q0 63 24 123.5t71 112.5t126.5 84t179.5 32q96 0 191.5 -27t155.5 -65l-52 -121q-152 76 -286 76 q-117 0 -185.5 -61.5t-68.5 -153.5q0 -50 23 -95t67.5 -83t87.5 -66.5t104 -60.5q192 -103 282 -219q85 -110 85 -240v-14q-2 -90 -35.5 -160.5t-91.5 -114.5q-57 -45 -133 -67q-72 -22 -158 -21h-8q-262 3 -408 129z" />
<glyph unicode="T" horiz-adv-x="1011" d="M51 1309v129h910v-129h-379v-1309h-154v1309h-377z" />
<glyph unicode="U" horiz-adv-x="1339" d="M166 496v942h156v-934q0 -168 95.5 -285t252.5 -117t252.5 117t95.5 285v934h156v-942q0 -80 -18.5 -155t-59 -143t-99 -118t-143 -79.5t-186.5 -29.5q-101 0 -185.5 29.5t-142 79.5t-97.5 118t-58.5 143t-18.5 155z" />
<glyph unicode="V" horiz-adv-x="1294" d="M33 1438h172l442 -1119l453 1119h162l-605 -1456h-28z" />
<glyph unicode="W" horiz-adv-x="1941" d="M33 1438h168l358 -1073l399 1091h27l393 -1104l375 1086h156l-518 -1456h-31l-393 1112l-398 -1112h-28z" />
<glyph unicode="X" horiz-adv-x="1187" d="M55 0l449 717l-447 721h183l354 -576l360 576h168q-316 -511 -444 -713l452 -725h-178l-362 582l-363 -582h-172z" />
<glyph unicode="Y" horiz-adv-x="1177" d="M35 1438h182l375 -564l379 564h170l-477 -719v-719h-156v719z" />
<glyph unicode="Z" horiz-adv-x="1136" d="M74 25l755 1284h-688v129h908l14 -25l-754 -1284h723v-129h-942z" />
<glyph unicode="[" horiz-adv-x="733" d="M178 -268v1706h447v-125l-291 -2v-1454h291v-125h-447z" />
<glyph unicode="\" horiz-adv-x="778" d="M10 1440l125 49l647 -1753l-120 -49z" />
<glyph unicode="]" horiz-adv-x="733" d="M109 -143h290v1454l-290 2v125h446v-1706h-446v125z" />
<glyph unicode="^" horiz-adv-x="798" d="M63 1022l324 416h27l321 -416l-98 -80l-238 318l-241 -318z" />
<glyph unicode="_" horiz-adv-x="1314" d="M0 -188h1315v-115h-1315v115z" />
<glyph unicode="`" horiz-adv-x="438" d="M61 1184v24h199l117 -256h-98z" />
<glyph unicode="a" horiz-adv-x="925" d="M55 248q0 119 92.5 200.5t243.5 81.5q88 0 174.5 -37t122.5 -79v57q-1 48 -15 91t-41.5 80.5t-76.5 60t-113 22.5q-48 0 -95.5 -13t-72.5 -25.5t-61 -33.5l-55 103q45 35 129 63q81 27 166 27h6q74 -1 138 -24t114.5 -68.5t81 -119.5t34.5 -169v-465h-82l-49 117 q-95 -144 -305 -144q-151 0 -243.5 79.5t-92.5 195.5zM199 254q0 -74 59.5 -124t155.5 -50q104 0 183.5 70t90.5 151v10q-42 48 -116 82q-71 33 -155 33h-5q-97 0 -155 -50.5t-58 -121.5z" />
<glyph unicode="b" horiz-adv-x="1067" d="M123 0v1438l129 24h12v-780q41 74 130.5 120t187.5 46q181 0 301.5 -122.5t120.5 -313.5q0 -193 -120 -315t-302 -122q-98 0 -189 47t-133 121l-59 -143h-78zM266 406q0 -137 86.5 -226.5t212.5 -89.5q128 0 210.5 92t82.5 230q0 137 -85 228t-210 91 q-129 0 -211.5 -83.5t-85.5 -217.5v-24z" />
<glyph unicode="c" horiz-adv-x="901" d="M63 412q0 181 123.5 308.5t315.5 127.5q96 0 184 -39t152 -107l-84 -94q-106 123 -246 123q-135 0 -218 -89.5t-83 -229.5q0 -137 89 -227.5t222 -90.5q72 0 142 30.5t112 72.5l74 -88q-139 -136 -346 -136q-182 0 -309.5 128.5t-127.5 310.5z" />
<glyph unicode="d" horiz-adv-x="1067" d="M63 412q0 191 120.5 313.5t299.5 122.5q99 0 188 -46t128 -120v756l131 24h14v-1462h-80l-59 143q-42 -74 -132 -121t-188 -47q-182 0 -302 122t-120 315zM207 412q0 -138 83.5 -230t211.5 -92q127 0 212 89.5t85 226.5v24q-3 133 -85 217t-208 84q-127 0 -213 -91 t-86 -228z" />
<glyph unicode="e" horiz-adv-x="942" d="M63 414q0 191 120.5 312.5t295.5 121.5q76 0 145.5 -28.5t125.5 -81.5t89 -137t33 -187h-667q0 -147 96.5 -234.5t239.5 -87.5q146 0 274 78q10 -19 31 -52.5t28 -45.5q-140 -97 -348 -97q-99 0 -186 35.5t-147 95.5t-95 140t-35 168zM221 520h498q-9 93 -77.5 153 t-162.5 60q-105 0 -176 -69.5t-82 -143.5z" />
<glyph unicode="f" horiz-adv-x="614" d="M74 705v16l16 100h109v334q0 76 22 136.5t58.5 96t84.5 57.5q47 21 98 21h4q54 -1 109 -14l-14 -117q-29 8 -56 8q-53 0 -97 -31q-67 -46 -66 -159v-332h217v-116h-217v-705h-143v705h-125z" />
<glyph unicode="g" horiz-adv-x="978" d="M20 -246q0 106 66 170.5t164 87.5q-41 8 -72 50q-31 41 -31 91q0 57 41 100.5t99 43.5q-76 41 -116 110t-40 144q0 54 20 105.5t59 95t103.5 70t145.5 26.5q65 0 131.5 -23t103.5 -57l189 53h24v-137h-159q36 -47 36 -127q0 -124 -88.5 -210t-240.5 -87q-162 0 -162 -100 q0 -101 178 -101q220 -6 343.5 -80.5t123.5 -226.5q0 -99 -69 -167t-171.5 -97t-226.5 -29q-89 0 -167.5 17.5t-143 52t-102.5 92.5t-38 133zM164 -244q0 -48 27.5 -84.5t73.5 -57t99.5 -30.5t112.5 -10q61 0 115 10t100.5 30.5t73.5 57t27 84.5q0 61 -49.5 105t-123.5 64 t-161 20q-132 0 -213.5 -48.5t-81.5 -140.5zM268 551q0 -71 51 -127.5t140 -56.5q90 0 141 56t51 128t-51 128t-141 56q-91 0 -141 -56t-50 -128z" />
<glyph unicode="h" horiz-adv-x="999" d="M123 0v1438l129 24h12v-757q45 64 121 103.5t162 39.5q156 0 256 -100.5t100 -260.5v-487h-145v475q0 109 -72 180.5t-170 71.5q-60 0 -115 -29.5t-94.5 -92.5t-42.5 -146v-459h-141z" />
<glyph unicode="i" horiz-adv-x="440" d="M104 1157q0 47 34.5 82t80.5 35q49 0 83 -34.5t34 -82.5q0 -49 -33.5 -82t-83.5 -33q-47 0 -81 33t-34 82zM150 0v821h143v-821h-143z" />
<glyph unicode="j" horiz-adv-x="444" d="M-82 -516l16 119q26 -6 50 -6q59 0 104 36q64 50 64 146v1042h143v-1044q0 -73 -21.5 -131t-58 -93t-85 -57t-102.5 -22q-2 -1 -5 -1q-51 0 -105 11zM106 1157q0 47 35 82t82 35t82 -35t35 -82q0 -49 -34.5 -82t-82.5 -33t-82.5 33t-34.5 82z" />
<glyph unicode="k" horiz-adv-x="897" d="M123 0v1438l129 24h14v-975l369 334h182l-418 -383l461 -438h-188l-406 379v-379h-143z" />
<glyph unicode="l" horiz-adv-x="389" d="M123 0v1438l129 24h14v-1462h-143z" />
<glyph unicode="m" horiz-adv-x="1423" d="M123 0v821h80l57 -104q29 55 87.5 93t137.5 38q196 0 273 -170q32 78 105 124t159 46q145 0 225 -90t80 -240v-518h-143v506q0 112 -56 165.5t-139 53.5q-31 0 -62.5 -12t-60.5 -36.5t-48.5 -68.5t-22.5 -100v-508h-144v506q0 111 -54.5 165t-137.5 54q-33 0 -66 -13 t-62 -38t-47 -70t-18 -102v-502h-143z" />
<glyph unicode="n" horiz-adv-x="999" d="M123 0v821h80l57 -119q46 65 123.5 105.5t165.5 40.5q156 0 255 -100t99 -261v-487h-145v475q0 120 -72 186t-170 66q-40 0 -82.5 -15.5t-80.5 -45t-62.5 -79.5t-24.5 -112v-475h-143z" />
<glyph unicode="o" horiz-adv-x="1009" d="M63 414q0 131 65 232t164.5 151.5t213.5 50.5q83 0 162 -30t141 -84.5t99.5 -137.5t37.5 -182q0 -131 -64.5 -233.5t-165 -155t-214.5 -52.5q-66 0 -130 19.5t-119.5 58t-98 90.5t-67 123t-24.5 150zM207 414q0 -140 86.5 -232t210.5 -92q126 0 210.5 91.5t84.5 232.5 t-86 230t-211 89q-126 0 -210.5 -89t-84.5 -230z" />
<glyph unicode="p" horiz-adv-x="1067" d="M123 -518v1339h78q10 -23 29.5 -72t29.5 -73q44 76 133.5 124t186.5 48q181 0 301 -123t120 -315q0 -191 -120 -313t-301 -122q-99 0 -188 44.5t-128 119.5v-631l-129 -26h-12zM266 391q0 -130 83.5 -215.5t211.5 -85.5q126 0 211.5 91t85.5 229q0 139 -83.5 230 t-211.5 91q-126 0 -211.5 -88.5t-85.5 -224.5v-27z" />
<glyph unicode="q" horiz-adv-x="1067" d="M63 410q0 192 120 315t302 123q98 0 188.5 -48t131.5 -124q24 63 59 145h80v-1313l-129 -26h-16v657q-36 -75 -125.5 -119.5t-190.5 -44.5q-179 0 -299.5 122t-120.5 313zM207 410q0 -138 86 -229t213 -91q125 0 209 84.5t84 216.5v27q0 136 -85 224.5t-212 88.5 q-128 0 -211.5 -91t-83.5 -230z" />
<glyph unicode="r" horiz-adv-x="614" d="M123 0v821h78l59 -94q23 50 77.5 84.5t121.5 34.5q48 0 112 -27l-26 -127l-13 -4q-42 25 -94 25q-118 0 -174 -121v-592h-141z" />
<glyph unicode="s" horiz-adv-x="784" d="M82 55l55 109q33 -23 101 -47.5t137 -24.5q47 0 90 10.5t76.5 39t33.5 69.5q0 50 -50 83.5t-152 59.5q-279 67 -279 256q0 110 84.5 174t214.5 64q57 0 108.5 -9.5t80.5 -20t77 -30.5l-43 -114q-114 57 -223 57q-69 0 -120.5 -31t-51.5 -92q0 -50 45.5 -78.5t134.5 -52.5 q142 -29 221.5 -95.5t79.5 -168.5q0 -81 -47 -137t-117.5 -79.5t-156.5 -23.5q-101 0 -180 26t-119 56z" />
<glyph unicode="t" horiz-adv-x="636" d="M51 705v16l15 100h124v287l132 27h12v-314h211v-116h-211v-465q0 -48 18.5 -80.5t48.5 -45.5q29 -13 63 -13q1 1 3 1q36 0 74 13l26 -115q-57 -18 -112 -18q-13 0 -25 1q-68 5 -121 29.5t-86 83t-33 142.5v467h-139z" />
<glyph unicode="u" horiz-adv-x="1015" d="M113 334v487h145v-475q0 -120 71.5 -186t170.5 -66q40 0 82.5 15.5t80.5 45t62.5 80t24.5 111.5v475h143v-821h-84l-53 119q-44 -68 -121.5 -107t-167.5 -39q-156 0 -255 100t-99 261z" />
<glyph unicode="v" horiz-adv-x="931" d="M33 821h153l281 -577l287 577h145l-420 -839h-28z" />
<glyph unicode="w" horiz-adv-x="1341" d="M33 821h147l217 -551l262 576h29l262 -576l221 551h138l-346 -839h-27l-264 614l-271 -614h-28z" />
<glyph unicode="x" horiz-adv-x="937" d="M45 821h176l244 -307l258 307h166q-296 -358 -340 -413l342 -408h-170q-107 121 -258 303l-244 -303h-170l328 408z" />
<glyph unicode="y" horiz-adv-x="937" d="M35 821h160l274 -590l281 590h149l-639 -1339h-139l-15 20l283 566z" />
<glyph unicode="z" horiz-adv-x="866" d="M72 31l506 674h-474l-2 116h682l11 -30l-486 -672h477v-119h-700z" />
<glyph unicode="{" horiz-adv-x="870" d="M92 526v117h49q51 0 87.5 15t56 36.5t30 56.5t13 62.5t2.5 67.5v151q0 70 7.5 125t29 110.5t57.5 92t97 59.5t143 23q42 0 92 -6q-9 -64 -21 -129q-18 2 -49 2q-54 0 -92.5 -15.5t-59 -38.5t-32 -59t-14.5 -65.5t-3 -69.5v-197q0 -209 -139 -280q69 -34 105 -108t36 -159 v-196q0 -30 0.5 -48.5t4.5 -49.5t11 -50.5t22 -43.5t35.5 -37.5t52.5 -23t73 -9.5q33 0 51 4l21 -129q-50 -6 -92 -6q-83 0 -144 23t-97 59t-57.5 91t-28.5 110t-7 124v154q0 39 -2.5 67t-13.5 62.5t-30.5 56t-55.5 36.5t-87 15h-51z" />
<glyph unicode="|" horiz-adv-x="532" d="M195 -268v1732h143v-1732h-143z" />
<glyph unicode="}" horiz-adv-x="870" d="M113 -266l20 129q18 -4 51 -4q41 0 73 9.5t52.5 23t35.5 37.5t22 43.5t11 50.5t4.5 49.5t0.5 48.5v196q0 85 36 159t105 108q-139 71 -139 280v197q0 40 -3 69.5t-14.5 65.5t-32 59t-59 38.5t-92.5 15.5q-31 0 -49 -2q-8 43 -20 129q50 6 92 6q82 0 143 -23t97 -59.5 t57.5 -92t29 -110.5t7.5 -125v-151q0 -40 2.5 -67.5t13 -62.5t29.5 -56.5t55.5 -36.5t87.5 -15h49v-117h-51q-51 0 -87 -15t-55.5 -36.5t-30 -56t-13 -62.5t-2.5 -67v-154q0 -69 -7 -124t-28.5 -110t-57.5 -91t-97 -59t-144 -23q-43 0 -92 6z" />
<glyph unicode="~" horiz-adv-x="827" d="M94 418q14 190 195 190q46 0 130.5 -30.5t119.5 -30.5q42 0 68.5 12t45.5 45l80 -14q-7 -104 -62.5 -148.5t-131.5 -44.5q-46 0 -129.5 32t-118.5 32q-43 0 -71.5 -11t-47.5 -44z" />
<glyph unicode="&#xa1;" horiz-adv-x="577" d="M162 772q0 54 37.5 89.5t91.5 35.5q53 0 89 -35.5t36 -89.5t-36.5 -91.5t-88.5 -37.5q-54 0 -91.5 37.5t-37.5 91.5zM182 -457l72 946h70l73 -946h-215z" />
<glyph unicode="&#xa2;" horiz-adv-x="901" d="M63 692q0 161 99 281.5t260 146.5v275h129v-269q169 -18 287 -143l-84 -94q-106 123 -246 123q-135 0 -218 -90t-83 -230q0 -136 88.5 -226.5t222.5 -90.5q72 0 142 30t112 72l74 -88q-110 -116 -295 -133v-256h-129v260q-156 28 -257.5 149.5t-101.5 282.5z" />
<glyph unicode="&#xa3;" horiz-adv-x="1105" d="M84 123q72 -2 131 14.5t97.5 48t59.5 74t20.5 94t-23.5 105.5h-203v127h168q-16 33 -50.5 86.5t-58 92.5t-42.5 96.5t-19 115.5q0 172 109.5 278.5t287.5 106.5q113 0 209 -45.5t145 -124.5l-104 -76q-37 53 -103 86t-139 33q-107 0 -179.5 -72t-72.5 -188 q0 -57 20.5 -112.5t47 -93t59 -89.5t48.5 -94h239v-127h-209q13 -41 15.5 -86.5t-11.5 -100.5t-47 -98q92 -74 230 -74q86 0 160.5 40.5t105.5 95.5l90 -91q-28 -51 -71.5 -87t-94 -54t-96.5 -25.5t-94 -7.5q-54 0 -100.5 7t-72.5 13t-60 23.5t-41.5 23t-37.5 25.5 q-38 -26 -88.5 -41t-84 -17.5t-78.5 -3t-52 -1.5z" />
<glyph unicode="&#xa4;" horiz-adv-x="1241" d="M119 317q2 2 119 113q-99 116 -99 289t99 289l-119 114l96 105l119 -119q128 92 284 92q163 0 287 -92l119 119l96 -105q-13 -13 -54 -52.5t-62 -61.5q96 -113 96 -289q0 -170 -96 -289l116 -113q-34 -34 -96 -104q-13 13 -37.5 37t-44.5 44t-37 38q-125 -90 -287 -90 q-159 0 -284 90l-119 -119q-62 70 -96 104zM281 719q0 -91 43 -172t121.5 -131.5t172.5 -50.5q145 0 244 106.5t99 247.5q0 92 -43.5 173.5t-123.5 132t-176 50.5q-143 0 -240 -107t-97 -249z" />
<glyph unicode="&#xa5;" horiz-adv-x="1185" d="M41 1333h178l377 -530l381 530h168l-400 -559h267v-121h-344v-143h344v-121h-344v-389h-156v389h-348v121h348v143h-348v121h270z" />
<glyph unicode="&#xa6;" horiz-adv-x="532" d="M195 -268v694h143v-694h-143zM195 770v694h143v-694h-143z" />
<glyph unicode="&#xa7;" horiz-adv-x="878" d="M82 -197l65 113q47 -35 119.5 -60.5t153.5 -25.5q82 0 146.5 47t64.5 125q0 69 -52.5 116.5t-164.5 88.5q-70 23 -123 49t-102 64t-75 91.5t-26 118.5q0 83 45 155t129 106q-76 49 -116 118.5t-40 147.5q0 138 95.5 221.5t238.5 83.5q156 0 305 -86l-57 -117 q-126 76 -246 76q-77 0 -131.5 -48.5t-54.5 -125.5q0 -70 52.5 -124.5t140.5 -86.5q173 -56 260.5 -136t87.5 -198q0 -81 -46.5 -146.5t-123.5 -109.5q74 -39 116.5 -105.5t42.5 -148.5q0 -146 -103.5 -225.5t-266.5 -79.5q-117 0 -202.5 32t-131.5 70zM244 532 q0 -67 64.5 -119.5t152.5 -74.5q69 5 125.5 56.5t56.5 125.5q0 55 -58 111t-179 90q-63 -7 -112.5 -54.5t-49.5 -134.5z" />
<glyph unicode="&#xa8;" horiz-adv-x="632" d="M61 1081q0 44 28.5 73.5t70.5 29.5q46 0 75 -29t29 -74q0 -44 -29 -72t-75 -28q-42 0 -70.5 28t-28.5 72zM367 1081q0 44 28.5 73.5t71.5 29.5q44 0 74 -29.5t30 -73.5t-29.5 -72t-74.5 -28q-43 0 -71.5 28t-28.5 72z" />
<glyph unicode="&#xa9;" horiz-adv-x="1617" d="M72 717q0 152 54.5 289t150.5 237.5t234.5 159.5t297.5 59q158 0 296 -59t234.5 -159.5t151.5 -237.5t55 -289q0 -151 -55 -287.5t-151.5 -236.5t-234.5 -159t-296 -59q-212 0 -382 100.5t-262.5 269.5t-92.5 372zM178 717q0 -177 80.5 -325.5t226 -237t324.5 -88.5 t325.5 88.5t228 237t81.5 325.5t-81.5 326t-228 238t-325.5 89q-135 0 -253 -52t-200.5 -140.5t-130 -208.5t-47.5 -252zM453 717q0 154 105 263.5t276 109.5q78 0 151.5 -32t118.5 -77q-25 -36 -64 -82q-93 86 -202 86q-119 0 -186.5 -79.5t-67.5 -190.5t70.5 -188.5 t183.5 -77.5q124 0 211 83l67 -69q-56 -64 -134 -91.5t-151 -27.5q-169 0 -273.5 112t-104.5 261z" />
<glyph unicode="&#xaa;" horiz-adv-x="778" d="M90 1130q0 93 68 156.5t184 63.5q48 0 92.5 -13t65 -24.5t53.5 -32.5v66q0 28 -9.5 57t-29 56t-55 44t-82.5 17q-68 0 -152 -41l-45 77q34 24 94 42.5t113 17.5q123 -3 200 -73.5t83 -207.5l-2 -407h-58l-49 86q-17 -35 -76.5 -70t-136.5 -35q-114 0 -186 63.5t-72 157.5 zM205 1133q0 -61 48 -97.5t107 -36.5q71 0 124 39t69 84v72q-4 3 -19 13t-22 14t-22.5 12.5t-27.5 12.5t-29.5 9t-37 7t-41.5 2q-62 0 -105.5 -35.5t-43.5 -95.5z" />
<glyph unicode="&#xab;" horiz-adv-x="1079" d="M66 397v23l417 442l95 -78l-340 -372l340 -365l-99 -82zM455 397v23l417 442l95 -78l-340 -372l340 -365l-99 -82z" />
<glyph unicode="&#xac;" horiz-adv-x="948" d="M92 442v127h764v-270h-133v143h-631z" />
<glyph unicode="&#xad;" horiz-adv-x="686" d="M92 391v137l502 70v-137z" />
<glyph unicode="&#xae;" horiz-adv-x="1617" d="M72 717q0 152 54.5 289t150.5 237.5t234.5 159.5t297.5 59q158 0 296 -59t234.5 -159.5t151.5 -237.5t55 -289q0 -151 -55 -287.5t-151.5 -236.5t-234.5 -159t-296 -59q-212 0 -382 100.5t-262.5 269.5t-92.5 372zM178 717q0 -177 80.5 -325.5t226 -237t324.5 -88.5 t325.5 88.5t228 237t81.5 325.5t-81.5 326t-228 238t-325.5 89q-135 0 -253 -52t-200.5 -140.5t-130 -208.5t-47.5 -252zM588 362v715q93 19 164 19q150 0 238.5 -67.5t88.5 -176.5q0 -64 -34 -116t-84 -83q33 -56 94 -157.5t80 -133.5h-138q-98 168 -145 252q-31 -8 -76 -8 q-41 0 -71 6v-250h-117zM705 713q34 -6 61 -6q89 0 140.5 41.5t51.5 103.5q0 63 -51.5 99t-138.5 36q-40 0 -63 -4v-270z" />
<glyph unicode="&#xaf;" horiz-adv-x="595" d="M61 1026v111h474v-111h-474z" />
<glyph unicode="&#xb0;" horiz-adv-x="753" d="M72 1159q0 132 89.5 219.5t213.5 87.5q126 0 216.5 -87.5t90.5 -219.5q0 -133 -85.5 -218t-221.5 -85q-134 0 -218.5 85t-84.5 218zM188 1159q0 -86 52 -142t135 -56q85 0 137.5 56t52.5 142t-52.5 142.5t-137.5 56.5q-82 0 -134.5 -56.5t-52.5 -142.5z" />
<glyph unicode="&#xb1;" horiz-adv-x="946" d="M92 283v120h760v-120h-760zM92 752v120h314v222h131v-222h317v-120h-317v-222h-131v222h-314z" />
<glyph unicode="&#xb2;" horiz-adv-x="663" d="M49 938q195 158 252 213q143 136 143 229q0 69 -39 103.5t-98 36.5q-44 0 -88.5 -24.5t-64.5 -61.5h-15l-61 55q32 56 99 91.5t140 35.5q100 0 170 -61t70 -179q0 -39 -19 -83.5t-43.5 -79.5t-64.5 -77t-65 -64.5t-61 -54.5q-10 -9 -15 -13h295v-91h-525z" />
<glyph unicode="&#xb3;" horiz-adv-x="677" d="M66 981l45 74h20q24 -24 73 -46t101 -22q68 0 120 39t52 104q0 71 -64 111.5t-167 15.5l-19 21l176 233h-299v88h455l10 -24l-174 -242q72 -5 132.5 -60.5t60.5 -146.5q0 -95 -73 -164t-204 -69q-79 0 -148 29t-97 59z" />
<glyph unicode="&#xb4;" horiz-adv-x="438" d="M61 952l117 256h199v-24l-217 -232h-99z" />
<glyph unicode="&#xb5;" horiz-adv-x="1026" d="M123 -526v1347h143v-475q0 -120 72.5 -185t171.5 -65q39 0 80.5 15.5t80 44.5t63 79t24.5 111v475h145v-821h-86l-53 121q-35 -63 -114.5 -105.5t-162.5 -42.5q-73 0 -135.5 27t-85.5 78v-570l-129 -34h-14z" />
<glyph unicode="&#xb6;" horiz-adv-x="1060" d="M72 1016q0 187 132.5 303.5t332.5 116.5h448v-129h-127v-1575h-135v1575h-94l-2 -1575h-133v858q-181 28 -301.5 140t-120.5 286z" />
<glyph unicode="&#xb7;" horiz-adv-x="479" d="M113 518q0 54 36.5 91.5t88.5 37.5q54 0 91.5 -37.5t37.5 -91.5t-37.5 -89.5t-91.5 -35.5q-53 0 -89 35.5t-36 89.5z" />
<glyph unicode="&#xb8;" horiz-adv-x="471" d="M61 -354q0 23 3.5 64.5t3.5 49.5q32 -14 71 -14q59 0 101.5 33.5t42.5 93.5q0 47 -23 80t-59 47v14q31 14 55 21q57 -10 105.5 -61t48.5 -124q0 -103 -73 -162t-175 -59q-45 0 -101 17z" />
<glyph unicode="&#xb9;" horiz-adv-x="495" d="M82 1495l229 123h25v-705h-109v555l-106 -53z" />
<glyph unicode="&#xba;" horiz-adv-x="763" d="M72 1262q0 153 86.5 254.5t222.5 101.5q139 0 225 -101.5t86 -254.5q0 -150 -87.5 -251.5t-223.5 -101.5q-137 0 -223 101t-86 252zM184 1262q0 -59 20 -116.5t67 -101t110 -43.5q50 0 89 25t61 65t33 84t11 87q0 46 -11 90.5t-33.5 85t-61 65.5t-88.5 25t-89 -25 t-62 -65t-34.5 -85.5t-11.5 -90.5z" />
<glyph unicode="&#xbb;" horiz-adv-x="1079" d="M113 43l340 373l-340 364l98 82l414 -432v-22l-418 -443zM502 43l340 373l-340 364l98 82l414 -432v-22l-418 -443z" />
<glyph unicode="&#xbc;" horiz-adv-x="1495" d="M127 1290l229 123h25v-704h-109v555l-106 -54zM190 18l1090 1414l70 -54l-1084 -1409zM784 147l461 560l37 -15l2 -493h82v-86h-84v-113h-104v113h-369zM946 199h232v286z" />
<glyph unicode="&#xbd;" horiz-adv-x="1570" d="M127 1290l229 123h25v-704h-109v555l-106 -54zM176 18l1090 1414l69 -54l-1083 -1409zM915 25q194 158 250 210q146 139 146 232q0 69 -39 103t-98 36q-45 0 -89.5 -24.5t-64.5 -61.5h-14l-62 55q32 56 99.5 91.5t140.5 35.5q100 0 169.5 -60.5t69.5 -178.5 q0 -49 -25.5 -102t-71 -104.5t-78.5 -83t-79 -71.5q-10 -8 -14 -12h295v-90h-524z" />
<glyph unicode="&#xbe;" horiz-adv-x="1605" d="M102 776l45 74h21q24 -24 73 -46t101 -22q68 0 120 39.5t52 104.5q0 71 -64 111.5t-167 15.5l-19 20l176 234h-299v88h455l10 -25l-174 -242q72 -5 132.5 -60t60.5 -146q0 -95 -73.5 -164.5t-203.5 -69.5q-79 0 -148.5 29.5t-97.5 58.5zM301 18l1090 1414l69 -54 l-1083 -1409zM881 147l460 560l37 -15l2 -493h82v-86h-84v-113h-104v113h-369zM1042 199h232v286z" />
<glyph unicode="&#xbf;" horiz-adv-x="698" d="M8 -162q0 67 18 122t46.5 93.5t63.5 73.5l70 70t63.5 74t46.5 94.5t18 123.5h112q14 -69 7 -120.5t-31 -100t-56 -85.5t-67 -76.5t-64.5 -74t-49 -78t-19.5 -87.5q0 -99 60.5 -157t148.5 -58q152 0 237 137l101 -84q-16 -29 -42.5 -58.5t-68 -60.5t-102 -50t-129.5 -19 q-150 0 -256.5 89t-106.5 232zM256 772q0 55 37 90t92 35q54 0 89.5 -35t35.5 -90q0 -54 -35.5 -91.5t-89.5 -37.5t-91.5 37.5t-37.5 91.5z" />
<glyph unicode="&#xc0;" horiz-adv-x="1335" d="M12 0l645 1456h29l637 -1456h-168l-151 354h-670l-154 -354h-168zM387 479h559l-276 660zM403 1765v25h199l117 -256h-98z" />
<glyph unicode="&#xc1;" horiz-adv-x="1335" d="M12 0l645 1456h29l637 -1456h-168l-151 354h-670l-154 -354h-168zM387 479h559l-276 660zM614 1534l117 256h199v-25l-217 -231h-99z" />
<glyph unicode="&#xc2;" horiz-adv-x="1335" d="M12 0l645 1456h29l637 -1456h-168l-151 354h-670l-154 -354h-168zM387 479h559l-276 660zM426 1534q96 152 164 256h153q68 -104 164 -256h-100q-16 14 -44 40.5t-51.5 48t-45.5 40.5l-140 -129h-100z" />
<glyph unicode="&#xc3;" horiz-adv-x="1335" d="M12 0l645 1456h29l637 -1456h-168l-151 354h-670l-154 -354h-168zM387 479h559l-276 660zM408 1597q3 76 44.5 116t104.5 40q44 0 114.5 -28.5t98.5 -28.5q34 0 52 11.5t34 37.5l72 -25q-6 -75 -49 -116t-107 -41q-41 0 -112.5 28.5t-96.5 28.5q-35 0 -53 -11t-33 -40z " />
<glyph unicode="&#xc4;" horiz-adv-x="1335" d="M12 0l645 1456h29l637 -1456h-168l-151 354h-670l-154 -354h-168zM387 479h559l-276 660zM408 1663q0 44 28 73t70 29q46 0 75 -29t29 -73t-29 -72t-75 -28q-42 0 -70 28t-28 72zM713 1663q0 44 28.5 73t71.5 29q45 0 75 -29t30 -73t-30 -72t-75 -28q-43 0 -71.5 28 t-28.5 72z" />
<glyph unicode="&#xc5;" horiz-adv-x="1335" d="M12 0l594 1350q-77 19 -124.5 81t-47.5 144q0 97 67.5 164t166.5 67q101 0 168 -67t67 -164q0 -81 -47 -143t-123 -82l588 -1350h-166l-154 352h-669l-152 -352h-168zM389 481h555l-276 664zM532 1575q0 -58 39 -98.5t97 -40.5q59 0 98 40.5t39 98.5t-39 97.5t-98 39.5 q-58 0 -97 -40t-39 -97z" />
<glyph unicode="&#xc6;" horiz-adv-x="1947" d="M-31 0l1098 1438h731v-129h-606v-414h487v-129h-487v-637h637v-129h-791v352h-610l-270 -352h-189zM518 481h520v695z" />
<glyph unicode="&#xc7;" horiz-adv-x="1452" d="M74 719q0 164 60.5 305.5t163 237t239 150t288.5 54.5q299 0 539 -204l-92 -115q-87 80 -202.5 132t-244.5 52q-120 0 -227.5 -47.5t-185.5 -128.5t-124 -195t-46 -241q0 -166 76.5 -306.5t211.5 -223.5t299 -83q126 0 249 49t210 126l90 -105q-44 -40 -86 -69.5 t-102.5 -60.5t-139.5 -49.5t-173 -23.5q47 -54 47 -123q0 -103 -73 -162t-175 -59q-45 0 -101 17q0 23 3.5 64.5t3.5 49.5q32 -14 71 -14q59 0 101.5 33.5t42.5 93.5q0 62 -41 100q-195 13 -351.5 115.5t-243.5 268t-87 362.5z" />
<glyph unicode="&#xc8;" horiz-adv-x="1081" d="M174 0v1438h758v-129h-604v-422h487v-129h-487v-629h637v-129h-791zM360 1765v25h199l117 -256h-98z" />
<glyph unicode="&#xc9;" horiz-adv-x="1081" d="M174 0v1438h758v-129h-604v-422h487v-129h-487v-629h637v-129h-791zM420 1534l117 256h198v-25l-217 -231h-98z" />
<glyph unicode="&#xca;" horiz-adv-x="1081" d="M174 0v1438h758v-129h-604v-422h487v-129h-487v-629h637v-129h-791zM326 1534q122 194 163 256h154q68 -104 164 -256h-100q-117 108 -142 129l-139 -129h-100z" />
<glyph unicode="&#xcb;" horiz-adv-x="1081" d="M174 0v1438h758v-129h-604v-422h487v-129h-487v-629h637v-129h-791zM301 1663q0 44 28 73t70 29q46 0 75.5 -29t29.5 -73t-29.5 -72t-75.5 -28q-42 0 -70 28t-28 72zM606 1663q0 44 29 73t72 29q44 0 74 -29t30 -73t-29.5 -72t-74.5 -28q-43 0 -72 28t-29 72z" />
<glyph unicode="&#xcc;" horiz-adv-x="501" d="M12 1765v25h199l117 -256h-99zM174 0v1438h154v-1438h-154z" />
<glyph unicode="&#xcd;" horiz-adv-x="501" d="M174 0v1438h154v-1438h-154zM174 1534l117 256h198v-25l-217 -231h-98z" />
<glyph unicode="&#xce;" horiz-adv-x="501" d="M10 1534q96 152 164 256h154q68 -104 164 -256h-101q-16 14 -44 40.5t-51.5 48t-45.5 40.5l-139 -129h-101zM174 0v1438h154v-1438h-154z" />
<glyph unicode="&#xcf;" horiz-adv-x="501" d="M-4 1663q0 44 28 73t70 29q46 0 75.5 -29t29.5 -73t-29.5 -72t-75.5 -28q-42 0 -70 28t-28 72zM174 0v1438h154v-1438h-154zM301 1663q0 44 28.5 73t71.5 29q45 0 75 -29t30 -73t-30 -72t-75 -28q-43 0 -71.5 28t-28.5 72z" />
<glyph unicode="&#xd0;" horiz-adv-x="1443" d="M20 649v127h205v660q199 33 356.5 19.5t277 -47.5t206.5 -98.5t144.5 -134t92 -154.5t48.5 -158.5t14 -147.5q0 -47 -7.5 -97t-23.5 -106t-43 -109.5t-64 -107t-90 -100t-116.5 -87t-147 -68.5t-179 -44t-215.5 -15.5t-253 19.5v649h-205zM381 129q165 -19 313.5 12.5 t260 105t177.5 195t66 273.5q0 108 -32 204t-97 176.5t-162.5 133.5t-229 74.5t-296.5 -0.5v-527h389v-127h-389v-520z" />
<glyph unicode="&#xd1;" horiz-adv-x="1341" d="M174 0v1442l23 14l821 -612v594h149v-1438h-149v659l-696 515v-1174h-148zM414 1597q3 76 44.5 116t104.5 40q44 0 114.5 -28.5t98.5 -28.5q34 0 52 11.5t34 37.5l72 -25q-6 -75 -49 -116t-107 -41q-41 0 -112.5 28.5t-96.5 28.5q-35 0 -53 -11t-33 -40z" />
<glyph unicode="&#xd2;" d="M74 717q0 210 96 381t267 269.5t382 98.5q158 0 297 -58t238 -157.5t156 -238t57 -295.5q0 -207 -97 -378t-269 -269.5t-382 -98.5q-158 0 -297 58t-237 157.5t-154.5 237.5t-56.5 293zM240 717q0 -131 46 -246t124 -194.5t184.5 -125t224.5 -45.5t224.5 45.5t185.5 125 t125.5 194.5t46.5 246t-46.5 246.5t-125.5 195.5t-185.5 126t-224.5 46q-158 0 -290.5 -78t-210.5 -219.5t-78 -316.5zM565 1765v25h199l117 -256h-99z" />
<glyph unicode="&#xd3;" d="M74 717q0 210 96 381t267 269.5t382 98.5q158 0 297 -58t238 -157.5t156 -238t57 -295.5q0 -207 -97 -378t-269 -269.5t-382 -98.5q-158 0 -297 58t-237 157.5t-154.5 237.5t-56.5 293zM240 717q0 -131 46 -246t124 -194.5t184.5 -125t224.5 -45.5t224.5 45.5t185.5 125 t125.5 194.5t46.5 246t-46.5 246.5t-125.5 195.5t-185.5 126t-224.5 46q-158 0 -290.5 -78t-210.5 -219.5t-78 -316.5zM766 1534l117 256h198v-25l-217 -231h-98z" />
<glyph unicode="&#xd4;" d="M74 717q0 210 96 381t267 269.5t382 98.5q158 0 297 -58t238 -157.5t156 -238t57 -295.5q0 -207 -97 -378t-269 -269.5t-382 -98.5q-158 0 -297 58t-237 157.5t-154.5 237.5t-56.5 293zM240 717q0 -131 46 -246t124 -194.5t184.5 -125t224.5 -45.5t224.5 45.5t185.5 125 t125.5 194.5t46.5 246t-46.5 246.5t-125.5 195.5t-185.5 126t-224.5 46q-158 0 -290.5 -78t-210.5 -219.5t-78 -316.5zM578 1534q122 194 163 256h154q68 -104 164 -256h-101q-16 14 -44 40.5t-51.5 48t-45.5 40.5l-139 -129h-100z" />
<glyph unicode="&#xd5;" d="M74 717q0 210 96 381t267 269.5t382 98.5q158 0 297 -58t238 -157.5t156 -238t57 -295.5q0 -207 -97 -378t-269 -269.5t-382 -98.5q-158 0 -297 58t-237 157.5t-154.5 237.5t-56.5 293zM240 717q0 -131 46 -246t124 -194.5t184.5 -125t224.5 -45.5t224.5 45.5t185.5 125 t125.5 194.5t46.5 246t-46.5 246.5t-125.5 195.5t-185.5 126t-224.5 46q-158 0 -290.5 -78t-210.5 -219.5t-78 -316.5zM561 1597q3 76 45 116t105 40q44 0 114.5 -28.5t98.5 -28.5q34 0 52 11.5t34 37.5l71 -25q-6 -76 -48.5 -116.5t-106.5 -40.5q-41 0 -112.5 28.5 t-96.5 28.5q-35 0 -53 -11t-33 -40z" />
<glyph unicode="&#xd6;" d="M74 717q0 210 96 381t267 269.5t382 98.5q158 0 297 -58t238 -157.5t156 -238t57 -295.5q0 -207 -97 -378t-269 -269.5t-382 -98.5q-158 0 -297 58t-237 157.5t-154.5 237.5t-56.5 293zM240 717q0 -131 46 -246t124 -194.5t184.5 -125t224.5 -45.5t224.5 45.5t185.5 125 t125.5 194.5t46.5 246t-46.5 246.5t-125.5 195.5t-185.5 126t-224.5 46q-158 0 -290.5 -78t-210.5 -219.5t-78 -316.5zM563 1663q0 44 28.5 73t70.5 29q46 0 75 -29t29 -73t-29 -72t-75 -28q-42 0 -70.5 28t-28.5 72zM868 1663q0 44 29 73t72 29q44 0 74 -29t30 -73 t-29.5 -72t-74.5 -28q-43 0 -72 28t-29 72z" />
<glyph unicode="&#xd7;" horiz-adv-x="952" d="M133 942l96 96l252 -252l252 252l84 -84l-252 -252l254 -251l-96 -99l-254 254l-248 -252q-13 12 -26.5 26t-30.5 31l-27 27l248 252z" />
<glyph unicode="&#xd8;" d="M74 717q0 210 95 381t266 269.5t384 98.5q173 0 324 -71l121 219l110 -55l-123 -222q148 -101 232 -263.5t84 -356.5q0 -155 -56.5 -293t-155 -237.5t-238 -157.5t-298.5 -58q-151 0 -295 56l-145 -263l-105 62l142 256q-160 98 -251 265t-91 370zM240 717 q0 -161 66 -292.5t181 -211.5l586 1057q-119 61 -254 61q-158 0 -290.5 -78t-210.5 -219.5t-78 -316.5zM594 152q108 -46 225 -46q118 0 224.5 45.5t185.5 125t125.5 194.5t46.5 246q0 151 -60 277.5t-165 207.5z" />
<glyph unicode="&#xd9;" horiz-adv-x="1339" d="M166 496v942h156v-934q0 -168 95.5 -285t252.5 -117t252.5 117t95.5 285v934h156v-942q0 -80 -18.5 -155t-59 -143t-99 -118t-143 -79.5t-186.5 -29.5q-101 0 -185.5 29.5t-142 79.5t-97.5 118t-58.5 143t-18.5 155zM428 1765v25h199l116 -256h-98z" />
<glyph unicode="&#xda;" horiz-adv-x="1339" d="M166 496v942h156v-934q0 -168 95.5 -285t252.5 -117t252.5 117t95.5 285v934h156v-942q0 -80 -18.5 -155t-59 -143t-99 -118t-143 -79.5t-186.5 -29.5q-101 0 -185.5 29.5t-142 79.5t-97.5 118t-58.5 143t-18.5 155zM582 1534l116 256h199v-25l-217 -231h-98z" />
<glyph unicode="&#xdb;" horiz-adv-x="1339" d="M166 496v942h156v-934q0 -168 95.5 -285t252.5 -117t252.5 117t95.5 285v934h156v-942q0 -80 -18.5 -155t-59 -143t-99 -118t-143 -79.5t-186.5 -29.5q-101 0 -185.5 29.5t-142 79.5t-97.5 118t-58.5 143t-18.5 155zM426 1534q96 152 164 256h153q68 -104 164 -256h-100 q-16 14 -44 40.5t-51.5 48t-45.5 40.5l-140 -129h-100z" />
<glyph unicode="&#xdc;" horiz-adv-x="1339" d="M166 496v942h156v-934q0 -168 95.5 -285t252.5 -117t252.5 117t95.5 285v934h156v-942q0 -80 -18.5 -155t-59 -143t-99 -118t-143 -79.5t-186.5 -29.5q-101 0 -185.5 29.5t-142 79.5t-97.5 118t-58.5 143t-18.5 155zM408 1663q0 44 28 73t70 29q46 0 75 -29t29 -73 t-29 -72t-75 -28q-42 0 -70 28t-28 72zM713 1663q0 44 28.5 73t71.5 29q45 0 75 -29t30 -73t-30 -72t-75 -28q-43 0 -71.5 28t-28.5 72z" />
<glyph unicode="&#xdd;" horiz-adv-x="1177" d="M35 1438h182l375 -564l379 564h170l-477 -719v-719h-156v719zM500 1534l116 256h199v-25l-217 -231h-98z" />
<glyph unicode="&#xde;" horiz-adv-x="1081" d="M174 0v1438h154v-219q55 6 106 6q263 0 419.5 -135.5t156.5 -362.5q0 -231 -160 -371.5t-422 -140.5q-48 0 -98 6v-221h-156zM330 356q47 -8 100 -8q197 0 310.5 108t113.5 271q0 159 -111.5 262t-302.5 103q-52 0 -110 -9v-727z" />
<glyph unicode="&#xdf;" horiz-adv-x="972" d="M123 0v1038q0 101 4 150q9 128 91.5 203t215.5 75q138 0 225.5 -85.5t90.5 -211.5l-195 -378q139 0 246.5 -111t107.5 -274q0 -148 -75.5 -253.5t-201.5 -146t-272 -6.5q13 61 21 119q157 -33 270 47t113 244q0 128 -82 208t-203 80q-44 0 -80 -8l-24 31q87 168 225 448 q0 75 -49 121.5t-121 46.5q-71 0 -118.5 -50.5t-47.5 -135.5v-1151h-141z" />
<glyph unicode="&#xe0;" horiz-adv-x="925" d="M55 248q0 119 92.5 200.5t243.5 81.5q88 0 174.5 -37t122.5 -79v57q-1 48 -15 91t-41.5 80.5t-76.5 60t-113 22.5q-48 0 -95.5 -13t-72.5 -25.5t-61 -33.5l-55 103q45 35 129 63t172 27q74 -1 138 -24t114.5 -68.5t81 -119.5t34.5 -169v-465h-82l-49 117 q-95 -144 -305 -144q-151 0 -243.5 79.5t-92.5 195.5zM199 254q0 -74 59.5 -124t155.5 -50q104 0 183.5 70t90.5 151v10q-43 48 -116.5 82t-159.5 33q-97 0 -155 -50.5t-58 -121.5zM242 1184v24h198l117 -256h-98z" />
<glyph unicode="&#xe1;" horiz-adv-x="925" d="M55 248q0 119 92.5 200.5t243.5 81.5q88 0 174.5 -37t122.5 -79v57q-1 48 -15 91t-41.5 80.5t-76.5 60t-113 22.5q-48 0 -95.5 -13t-72.5 -25.5t-61 -33.5l-55 103q45 35 129 63t172 27q74 -1 138 -24t114.5 -68.5t81 -119.5t34.5 -169v-465h-82l-49 117 q-95 -144 -305 -144q-151 0 -243.5 79.5t-92.5 195.5zM199 254q0 -74 59.5 -124t155.5 -50q104 0 183.5 70t90.5 151v10q-43 48 -116.5 82t-159.5 33q-97 0 -155 -50.5t-58 -121.5zM358 952l117 256h199v-24l-217 -232h-99z" />
<glyph unicode="&#xe2;" horiz-adv-x="925" d="M55 248q0 119 92.5 200.5t243.5 81.5q88 0 174.5 -37t122.5 -79v57q-1 48 -15 91t-41.5 80.5t-76.5 60t-113 22.5q-48 0 -95.5 -13t-72.5 -25.5t-61 -33.5l-55 103q45 35 129 63t172 27q74 -1 138 -24t114.5 -68.5t81 -119.5t34.5 -169v-465h-82l-49 117 q-95 -144 -305 -144q-151 0 -243.5 79.5t-92.5 195.5zM199 254q0 -74 59.5 -124t155.5 -50q104 0 183.5 70t90.5 151v10q-43 48 -116.5 82t-159.5 33q-97 0 -155 -50.5t-58 -121.5zM231 952q96 152 164 256h154q68 -104 164 -256h-101q-16 14 -44 40.5t-51.5 48t-45.5 40.5 l-139 -129h-101z" />
<glyph unicode="&#xe3;" horiz-adv-x="925" d="M55 248q0 119 92.5 200.5t243.5 81.5q88 0 174.5 -37t122.5 -79v57q-1 48 -15 91t-41.5 80.5t-76.5 60t-113 22.5q-48 0 -95.5 -13t-72.5 -25.5t-61 -33.5l-55 103q45 35 129 63t172 27q74 -1 138 -24t114.5 -68.5t81 -119.5t34.5 -169v-465h-82l-49 117 q-95 -144 -305 -144q-151 0 -243.5 79.5t-92.5 195.5zM199 254q0 -74 59.5 -124t155.5 -50q104 0 183.5 70t90.5 151v10q-43 48 -116.5 82t-159.5 33q-97 0 -155 -50.5t-58 -121.5zM209 1016q3 76 44.5 115.5t104.5 39.5q44 0 114.5 -28.5t98.5 -28.5q34 0 52 11.5t34 37.5 l72 -24q-6 -76 -49 -117t-107 -41q-41 0 -112 28.5t-96 28.5q-35 0 -53 -11t-33 -40z" />
<glyph unicode="&#xe4;" horiz-adv-x="925" d="M55 248q0 119 92.5 200.5t243.5 81.5q88 0 174.5 -37t122.5 -79v57q-1 48 -15 91t-41.5 80.5t-76.5 60t-113 22.5q-48 0 -95.5 -13t-72.5 -25.5t-61 -33.5l-55 103q45 35 129 63t172 27q74 -1 138 -24t114.5 -68.5t81 -119.5t34.5 -169v-465h-82l-49 117 q-95 -144 -305 -144q-151 0 -243.5 79.5t-92.5 195.5zM199 254q0 -74 59.5 -124t155.5 -50q104 0 183.5 70t90.5 151v10q-43 48 -116.5 82t-159.5 33q-97 0 -155 -50.5t-58 -121.5zM209 1081q0 44 28.5 73.5t69.5 29.5q46 0 75.5 -29.5t29.5 -73.5t-29.5 -72t-75.5 -28 q-42 0 -70 28t-28 72zM514 1081q0 44 28.5 73.5t71.5 29.5q44 0 74.5 -29.5t30.5 -73.5t-30 -72t-75 -28q-43 0 -71.5 28t-28.5 72z" />
<glyph unicode="&#xe5;" horiz-adv-x="925" d="M55 248q0 119 92.5 200.5t243.5 81.5q88 0 174.5 -37t122.5 -79v57q-1 48 -15 91t-41.5 80.5t-76.5 60t-113 22.5q-48 0 -95.5 -13t-72.5 -25.5t-61 -33.5l-55 103q52 41 143 67q-68 68 -68 168q0 99 67.5 166.5t166.5 67.5q101 0 168 -67.5t67 -166.5q0 -107 -84 -178 q92 -40 147.5 -127.5t61.5 -220.5l-2 -465h-80l-49 117q-95 -144 -305 -144q-151 0 -243.5 79.5t-92.5 195.5zM199 254q0 -74 59.5 -124t155.5 -50q104 0 183.5 70t90.5 151v10q-43 48 -116.5 82t-159.5 33q-97 0 -155 -50.5t-58 -121.5zM334 993q0 -58 38 -99.5t97 -41.5 q58 0 96.5 41.5t38.5 99.5t-38.5 97.5t-96.5 39.5q-59 0 -97 -39.5t-38 -97.5z" />
<glyph unicode="&#xe6;" horiz-adv-x="1570" d="M55 248q0 119 92.5 200.5t243.5 81.5q88 0 174.5 -37t122.5 -79v57q-1 48 -15 91t-41.5 80.5t-76.5 60t-113 22.5q-48 0 -95.5 -13t-72.5 -25.5t-61 -33.5l-55 103q45 35 129 63t172 27q100 -2 181.5 -44t129.5 -124q57 80 146 125t192 45q76 0 145.5 -28.5t125.5 -81.5 t89 -137t33 -187h-667q0 -147 96 -234.5t239 -87.5q147 0 275 78q10 -19 31 -52.5t28 -45.5q-140 -97 -348 -97q-127 0 -230 55t-163 148q-128 -205 -350 -205q-165 0 -261 79t-96 196zM199 254q0 -74 59.5 -124t155.5 -50q104 0 183.5 70t90.5 151v10q-43 48 -116.5 82 t-159.5 33q-97 0 -155 -50.5t-58 -121.5zM850 520h498q-9 93 -77.5 153t-162.5 60q-105 0 -176 -69.5t-82 -143.5z" />
<glyph unicode="&#xe7;" horiz-adv-x="901" d="M63 412q0 181 123.5 308.5t315.5 127.5q96 0 184 -39t152 -107l-84 -94q-106 123 -246 123q-135 0 -218 -89.5t-83 -229.5q0 -137 89 -227.5t222 -90.5q72 0 142 30.5t112 72.5l74 -88q-109 -106 -262 -129q53 -53 53 -130q0 -103 -73 -162t-175 -59q-44 0 -100 17 q0 3 6 114q32 -14 72 -14q59 0 101 33.5t42 93.5q0 61 -41 102q-171 10 -288.5 136.5t-117.5 300.5z" />
<glyph unicode="&#xe8;" horiz-adv-x="942" d="M63 414q0 191 120.5 312.5t295.5 121.5q76 0 145.5 -28.5t125.5 -81.5t89 -137t33 -187h-667q0 -147 96.5 -234.5t239.5 -87.5q146 0 274 78q10 -19 31 -52.5t28 -45.5q-140 -97 -348 -97q-99 0 -186 35.5t-147 95.5t-95 140t-35 168zM221 520h498q-9 93 -77.5 153 t-162.5 60q-105 0 -176 -69.5t-82 -143.5zM264 1184v24h199l117 -256h-99z" />
<glyph unicode="&#xe9;" horiz-adv-x="942" d="M63 414q0 191 120.5 312.5t295.5 121.5q76 0 145.5 -28.5t125.5 -81.5t89 -137t33 -187h-667q0 -147 96.5 -234.5t239.5 -87.5q146 0 274 78q10 -19 31 -52.5t28 -45.5q-140 -97 -348 -97q-99 0 -186 35.5t-147 95.5t-95 140t-35 168zM221 520h498q-9 93 -77.5 153 t-162.5 60q-105 0 -176 -69.5t-82 -143.5zM365 952l116 256h199v-24l-217 -232h-98z" />
<glyph unicode="&#xea;" horiz-adv-x="942" d="M63 414q0 191 120.5 312.5t295.5 121.5q76 0 145.5 -28.5t125.5 -81.5t89 -137t33 -187h-667q0 -147 96.5 -234.5t239.5 -87.5q146 0 274 78q10 -19 31 -52.5t28 -45.5q-140 -97 -348 -97q-99 0 -186 35.5t-147 95.5t-95 140t-35 168zM221 520h498q-9 93 -77.5 153 t-162.5 60q-105 0 -176 -69.5t-82 -143.5zM236 952q122 194 163 256h154q68 -104 164 -256h-101q-16 14 -44 40.5t-51.5 48t-45.5 40.5l-139 -129h-100z" />
<glyph unicode="&#xeb;" horiz-adv-x="942" d="M63 414q0 191 120.5 312.5t295.5 121.5q76 0 145.5 -28.5t125.5 -81.5t89 -137t33 -187h-667q0 -147 96.5 -234.5t239.5 -87.5q146 0 274 78q10 -19 31 -52.5t28 -45.5q-140 -97 -348 -97q-99 0 -186 35.5t-147 95.5t-95 140t-35 168zM221 520h498q-9 93 -77.5 153 t-162.5 60q-105 0 -176 -69.5t-82 -143.5zM227 1081q0 44 28.5 73.5t70.5 29.5q46 0 75 -29t29 -74q0 -44 -29 -72t-75 -28q-42 0 -70.5 28t-28.5 72zM532 1081q0 44 29 73.5t72 29.5q44 0 74 -29.5t30 -73.5t-29.5 -72t-74.5 -28q-43 0 -72 28t-29 72z" />
<glyph unicode="&#xec;" horiz-adv-x="438" d="M-27 1184v24h199l117 -256h-99zM150 0v821h139v-821h-139z" />
<glyph unicode="&#xed;" horiz-adv-x="438" d="M147 952l117 256h199v-24l-217 -232h-99zM150 0v821h139v-821h-139z" />
<glyph unicode="&#xee;" horiz-adv-x="438" d="M-20 952q122 194 163 256h154q68 -104 164 -256h-101q-16 14 -44 40.5t-51.5 48t-45.5 40.5l-139 -129h-100zM150 0v821h139v-821h-139z" />
<glyph unicode="&#xef;" horiz-adv-x="438" d="M-35 1081q0 44 28.5 73.5t69.5 29.5q46 0 75.5 -29.5t29.5 -73.5t-29.5 -72t-75.5 -28q-42 0 -70 28t-28 72zM150 0v821h139v-821h-139zM270 1081q0 44 29 73.5t72 29.5q44 0 74 -29.5t30 -73.5t-29.5 -72t-74.5 -28q-43 0 -72 28t-29 72z" />
<glyph unicode="&#xf0;" horiz-adv-x="1024" d="M63 406q0 195 121.5 318.5t313.5 123.5q90 0 178 -40.5t131 -123.5q-49 304 -250 485l-108 -145l-93 63l111 146q-134 94 -297 119l-16 20l36 92q188 -27 349 -133l106 139l92 -67q-6 -8 -45 -59t-61 -78q330 -280 330 -809q0 -112 -37 -205t-99.5 -152.5t-143 -92 t-169.5 -32.5q-191 0 -320 120.5t-129 310.5zM207 406q0 -134 89 -225t212 -91q120 0 209.5 90.5t89.5 225.5q0 138 -86 231.5t-219 93.5t-214 -91.5t-81 -233.5z" />
<glyph unicode="&#xf1;" horiz-adv-x="999" d="M123 0v821h80l57 -119q46 65 123.5 105.5t165.5 40.5q156 0 255 -100t99 -261v-487h-145v475q0 120 -72 186t-170 66q-40 0 -82.5 -15.5t-80.5 -45t-62.5 -79.5t-24.5 -112v-475h-143zM262 1016q3 76 44.5 115.5t105.5 39.5q44 0 114.5 -28.5t98.5 -28.5q34 0 52 11.5 t34 37.5l71 -24q-6 -76 -48.5 -117t-106.5 -41q-41 0 -112.5 28.5t-96.5 28.5q-35 0 -53 -11t-33 -40z" />
<glyph unicode="&#xf2;" horiz-adv-x="1009" d="M63 414q0 131 65 232t164.5 151.5t213.5 50.5q83 0 162 -30t141 -84.5t99.5 -137.5t37.5 -182q0 -131 -64.5 -233.5t-165 -155t-214.5 -52.5q-66 0 -130 19.5t-119.5 58t-98 90.5t-67 123t-24.5 150zM207 414q0 -140 86.5 -232t210.5 -92q126 0 210.5 91.5t84.5 232.5 t-86 230t-211 89q-126 0 -210.5 -89t-84.5 -230zM264 1184v24h199l117 -256h-99z" />
<glyph unicode="&#xf3;" horiz-adv-x="1009" d="M63 414q0 131 65 232t164.5 151.5t213.5 50.5q83 0 162 -30t141 -84.5t99.5 -137.5t37.5 -182q0 -131 -64.5 -233.5t-165 -155t-214.5 -52.5q-66 0 -130 19.5t-119.5 58t-98 90.5t-67 123t-24.5 150zM207 414q0 -140 86.5 -232t210.5 -92q126 0 210.5 91.5t84.5 232.5 t-86 230t-211 89q-126 0 -210.5 -89t-84.5 -230zM412 952l116 256h199v-24l-217 -232h-98z" />
<glyph unicode="&#xf4;" horiz-adv-x="1009" d="M63 414q0 131 65 232t164.5 151.5t213.5 50.5q83 0 162 -30t141 -84.5t99.5 -137.5t37.5 -182q0 -131 -64.5 -233.5t-165 -155t-214.5 -52.5q-66 0 -130 19.5t-119.5 58t-98 90.5t-67 123t-24.5 150zM207 414q0 -140 86.5 -232t210.5 -92q126 0 210.5 91.5t84.5 232.5 t-86 230t-211 89q-126 0 -210.5 -89t-84.5 -230zM262 952q96 152 164 256h154q41 -62 163 -256h-100q-16 14 -44 40.5t-51.5 48t-45.5 40.5l-140 -129h-100z" />
<glyph unicode="&#xf5;" horiz-adv-x="1009" d="M63 414q0 131 65 232t164.5 151.5t213.5 50.5q83 0 162 -30t141 -84.5t99.5 -137.5t37.5 -182q0 -131 -64.5 -233.5t-165 -155t-214.5 -52.5q-66 0 -130 19.5t-119.5 58t-98 90.5t-67 123t-24.5 150zM207 414q0 -140 86.5 -232t210.5 -92q126 0 210.5 91.5t84.5 232.5 t-86 230t-211 89q-126 0 -210.5 -89t-84.5 -230zM244 1016q3 76 44.5 115.5t104.5 39.5q44 0 114.5 -28.5t98.5 -28.5q34 0 52 11.5t34 37.5l72 -24q-6 -76 -49 -117t-107 -41q-41 0 -112.5 28.5t-96.5 28.5q-35 0 -53 -11t-33 -40z" />
<glyph unicode="&#xf6;" horiz-adv-x="1009" d="M63 414q0 131 65 232t164.5 151.5t213.5 50.5q83 0 162 -30t141 -84.5t99.5 -137.5t37.5 -182q0 -131 -64.5 -233.5t-165 -155t-214.5 -52.5q-66 0 -130 19.5t-119.5 58t-98 90.5t-67 123t-24.5 150zM207 414q0 -140 86.5 -232t210.5 -92q126 0 210.5 91.5t84.5 232.5 t-86 230t-211 89q-126 0 -210.5 -89t-84.5 -230zM246 1081q0 44 28.5 73.5t69.5 29.5q46 0 75.5 -29.5t29.5 -73.5t-29.5 -72t-75.5 -28q-42 0 -70 28t-28 72zM551 1081q0 44 28.5 73.5t71.5 29.5q44 0 74.5 -29.5t30.5 -73.5t-30 -72t-75 -28q-43 0 -71.5 28t-28.5 72z" />
<glyph unicode="&#xf7;" horiz-adv-x="948" d="M92 635v127h764v-127h-764zM360 387q0 51 32 84t81 33q50 0 82.5 -33t32.5 -84q0 -49 -32.5 -81t-82.5 -32q-49 0 -81 32t-32 81zM360 1020q0 51 32 84t81 33q50 0 82.5 -33t32.5 -84q0 -49 -32.5 -81t-82.5 -32q-49 0 -81 31.5t-32 81.5z" />
<glyph unicode="&#xf8;" horiz-adv-x="1009" d="M63 414q0 131 65 232t164.5 151.5t213.5 50.5q73 0 164 -31l94 170l94 -45l-96 -174q85 -58 134.5 -148t49.5 -206q0 -131 -64.5 -233.5t-165 -155t-214.5 -52.5q-74 0 -162 31l-111 -199l-90 54l109 194q-86 60 -135.5 152t-49.5 209zM207 414q0 -156 102 -248l301 547 q-55 20 -108 20q-126 0 -210.5 -89t-84.5 -230zM397 111q49 -21 107 -21q126 0 210.5 91.5t84.5 232.5q0 149 -99 241z" />
<glyph unicode="&#xf9;" horiz-adv-x="1015" d="M113 334v487h145v-475q0 -120 71.5 -186t170.5 -66q40 0 82.5 15.5t80.5 45t62.5 80t24.5 111.5v475h143v-821h-84l-53 119q-46 -65 -123.5 -105.5t-165.5 -40.5q-156 0 -255 100t-99 261zM270 1184v24h199l117 -256h-99z" />
<glyph unicode="&#xfa;" horiz-adv-x="1015" d="M113 334v487h145v-475q0 -120 71.5 -186t170.5 -66q40 0 82.5 15.5t80.5 45t62.5 80t24.5 111.5v475h143v-821h-84l-53 119q-46 -65 -123.5 -105.5t-165.5 -40.5q-156 0 -255 100t-99 261zM422 952l117 256h200v-24l-219 -232h-98z" />
<glyph unicode="&#xfb;" horiz-adv-x="1015" d="M113 334v487h143v-475q0 -107 74 -179.5t170 -72.5q31 0 64.5 9t67 29.5t59.5 49.5t42.5 71.5t16.5 92.5v475h143v-821h-86l-53 119q-45 -65 -122.5 -104.5t-166.5 -39.5q-155 0 -253.5 99.5t-98.5 259.5zM262 952q27 42 82 128t82 128h156q27 -42 81 -128t82 -128h-100 l-141 129l-142 -129h-100z" />
<glyph unicode="&#xfc;" horiz-adv-x="1015" d="M113 334v487h145v-475q0 -120 71.5 -186t170.5 -66q40 0 82.5 15.5t80.5 45t62.5 80t24.5 111.5v475h143v-821h-84l-53 119q-46 -65 -123.5 -105.5t-165.5 -40.5q-156 0 -255 100t-99 261zM236 1081q0 44 28.5 73.5t69.5 29.5q46 0 75 -29t29 -74q0 -44 -29 -72t-75 -28 q-42 0 -70 28t-28 72zM543 1081q0 44 28.5 73.5t71.5 29.5t72.5 -29.5t29.5 -73.5t-29.5 -72t-72.5 -28t-71.5 28t-28.5 72z" />
<glyph unicode="&#xfd;" horiz-adv-x="937" d="M35 821h160l274 -590l281 590h149l-639 -1339h-139l-15 20l283 566zM397 952l117 256h199v-24l-217 -232h-99z" />
<glyph unicode="&#xfe;" horiz-adv-x="1067" d="M123 -518v1956l129 24h12v-780q44 74 133 120t187 46q180 0 298.5 -123t118.5 -315t-119.5 -313.5t-301.5 -121.5q-96 0 -185.5 45.5t-130.5 118.5v-631l-129 -26h-12zM266 403q0 -134 85.5 -223.5t211.5 -89.5q128 0 211.5 91.5t83.5 228.5q0 138 -84.5 229.5 t-210.5 91.5q-128 0 -211 -83.5t-86 -219.5v-25z" />
<glyph unicode="&#xff;" horiz-adv-x="937" d="M35 821h160l274 -590l281 590h149l-639 -1339h-139l-15 20l283 566zM215 1081q0 44 28.5 73.5t69.5 29.5q46 0 75.5 -29.5t29.5 -73.5t-29.5 -72t-75.5 -28q-42 0 -70 28t-28 72zM520 1081q0 44 29 73.5t72 29.5q44 0 74 -29.5t30 -73.5t-29.5 -72t-74.5 -28 q-43 0 -72 28t-29 72z" />
<glyph unicode="&#x152;" horiz-adv-x="1929" d="M74 715q0 61 11 126t38 138.5t68 140.5t106.5 129t147.5 107.5t197 72.5t249 27q110 0 239 -18h650v-129h-609v-422h490v-129h-490v-631h639v-127h-680q-123 -20 -239 -20q-134 0 -248.5 27.5t-196.5 73t-147.5 108t-107 129t-68.5 139t-38 136t-11 122.5zM242 715 q0 -181 88 -319t234.5 -209.5t326.5 -71.5q55 0 127 10v1182q-76 12 -146 12q-147 0 -268.5 -50.5t-199.5 -135.5t-120 -193t-42 -225z" />
<glyph unicode="&#x153;" horiz-adv-x="1683" d="M63 414q0 131 65 232t164.5 151.5t213.5 50.5q116 0 211 -48.5t155 -137.5q55 87 148 136.5t201 49.5q76 0 145.5 -28.5t125.5 -81.5t89 -137t33 -187h-668q0 -147 96.5 -234.5t239.5 -87.5q146 0 274 78q10 -18 31.5 -51.5t28.5 -46.5q-140 -97 -348 -97 q-123 0 -225 53.5t-164 143.5q-59 -94 -158 -146.5t-219 -52.5q-66 0 -130 19.5t-119.5 58t-98 90.5t-67 123t-24.5 150zM207 414q0 -140 86.5 -232t210.5 -92q126 0 210.5 91.5t84.5 232.5t-86 230t-211 89q-126 0 -210.5 -89t-84.5 -230zM963 520h497q-9 93 -77 153 t-162 60q-105 0 -176 -69.5t-82 -143.5z" />
<glyph unicode="&#x178;" horiz-adv-x="1177" d="M35 1438h182l375 -564l379 564h170l-477 -719v-719h-156v719zM330 1663q0 44 28 73t70 29q46 0 75 -29t29 -73t-29 -72t-75 -28q-42 0 -70 28t-28 72zM635 1663q0 44 28.5 73t71.5 29q45 0 75 -29t30 -73t-30 -72t-75 -28q-43 0 -71.5 28t-28.5 72z" />
<glyph unicode="&#x2c6;" horiz-adv-x="606" d="M61 952q96 152 164 256h154q68 -104 164 -256h-101q-16 14 -44 40.5t-51.5 48t-45.5 40.5l-139 -129h-101z" />
<glyph unicode="&#x2dc;" horiz-adv-x="645" d="M63 1016q3 76 44.5 115.5t105.5 39.5q44 0 114.5 -28.5t98.5 -28.5q34 0 52 11.5t34 37.5l72 -24q-6 -76 -49 -117t-107 -41q-41 0 -112.5 28.5t-96.5 28.5q-35 0 -53 -11t-33 -40z" />
<glyph unicode="&#x2000;" horiz-adv-x="903" />
<glyph unicode="&#x2001;" horiz-adv-x="1806" />
<glyph unicode="&#x2002;" horiz-adv-x="903" />
<glyph unicode="&#x2003;" horiz-adv-x="1806" />
<glyph unicode="&#x2004;" horiz-adv-x="602" />
<glyph unicode="&#x2005;" horiz-adv-x="451" />
<glyph unicode="&#x2006;" horiz-adv-x="301" />
<glyph unicode="&#x2007;" horiz-adv-x="301" />
<glyph unicode="&#x2008;" horiz-adv-x="225" />
<glyph unicode="&#x2009;" horiz-adv-x="361" />
<glyph unicode="&#x200a;" horiz-adv-x="100" />
<glyph unicode="&#x2010;" horiz-adv-x="686" d="M92 391v137l502 70v-137z" />
<glyph unicode="&#x2011;" horiz-adv-x="686" d="M92 391v137l502 70v-137z" />
<glyph unicode="&#x2012;" horiz-adv-x="686" d="M92 391v137l502 70v-137z" />
<glyph unicode="&#x2013;" horiz-adv-x="952" d="M92 442v127h768v-127h-768z" />
<glyph unicode="&#x2014;" horiz-adv-x="1517" d="M92 442v127h1333v-127h-1333z" />
<glyph unicode="&#x2018;" horiz-adv-x="485" d="M74 942l225 518l57 -14l-71 -528h-207z" />
<glyph unicode="&#x2019;" horiz-adv-x="485" d="M113 911l71 529h207l4 -25l-225 -518z" />
<glyph unicode="&#x201a;" horiz-adv-x="485" d="M90 -303l72 528h207l4 -24l-226 -518z" />
<glyph unicode="&#x201c;" horiz-adv-x="806" d="M74 942l225 518l57 -14l-71 -528h-207zM395 942l226 518l57 -14l-72 -528h-207z" />
<glyph unicode="&#x201d;" horiz-adv-x="806" d="M113 911l71 529h207l4 -25l-225 -518zM434 911l72 529h207l4 -25l-225 -518z" />
<glyph unicode="&#x201e;" horiz-adv-x="808" d="M90 -303l72 528h207l4 -24l-226 -518zM414 -303l71 528h207l4 -24l-225 -518z" />
<glyph unicode="&#x2022;" horiz-adv-x="659" d="M154 506q0 72 50 124t124 52q72 0 125 -52.5t53 -123.5q0 -74 -52.5 -125t-125.5 -51q-75 0 -124.5 50.5t-49.5 125.5z" />
<glyph unicode="&#x2026;" horiz-adv-x="1439" d="M113 104q0 54 36.5 91.5t88.5 37.5q54 0 91.5 -37.5t37.5 -91.5t-37 -89t-92 -35q-53 0 -89 35t-36 89zM590 104q0 54 36.5 91.5t88.5 37.5q54 0 91.5 -37.5t37.5 -91.5t-37 -89t-92 -35q-53 0 -89 35t-36 89zM1073 104q0 54 36.5 91.5t88.5 37.5q54 0 91.5 -37.5 t37.5 -91.5t-37 -89t-92 -35q-53 0 -89 35t-36 89z" />
<glyph unicode="&#x202f;" horiz-adv-x="361" />
<glyph unicode="&#x2039;" horiz-adv-x="690" d="M66 397v23l417 442l95 -78l-340 -372l340 -365l-99 -82z" />
<glyph unicode="&#x203a;" horiz-adv-x="690" d="M113 43l340 373l-340 364l98 82l414 -432v-22l-418 -443z" />
<glyph unicode="&#x205f;" horiz-adv-x="451" />
<glyph unicode="&#x20ac;" horiz-adv-x="1443" d="M0 469v16l12 88h174q0 5 -3 38.5t-3 54.5q0 19 3 49.5t3 36.5h-145v16l12 90h156q58 226 243 365t420 139q111 0 211.5 -30t161 -67t123.5 -89l-92 -105q-88 75 -179.5 119.5t-211.5 44.5q-183 0 -321.5 -106t-186.5 -271h674v-14l-15 -92h-688q0 -6 -3 -36.5t-3 -49.5 q0 -27 8 -93h660v-4v-12l-15 -88h-616q48 -160 190 -265.5t320 -105.5q231 0 409 150l86 -94q-100 -89 -215.5 -136t-294.5 -47q-236 0 -419.5 138t-243.5 360h-211z" />
<glyph unicode="&#x2122;" horiz-adv-x="1611" d="M82 1337v101h584v-101h-236v-671h-115v671h-233zM782 666v772l23 8l328 -379l348 379l22 -8v-772h-108v538l-254 -286h-15l-233 268v-520h-111z" />
<glyph unicode="&#x25fc;" horiz-adv-x="819" d="M0 0v819h819v-819h-819z" />
</font>
</defs>
</svg>
