<?xml version="1.0" standalone="no"?>
<!DOCTYPE svg PUBLIC "-//W3C//DTD SVG 1.1//EN" "http://www.w3.org/Graphics/SVG/1.1/DTD/svg11.dtd" >
<svg xmlns="http://www.w3.org/2000/svg" xmlns:xlink="http://www.w3.org/1999/xlink" version="1.1">
<metadata></metadata>
<defs>
<font id="transatlight" horiz-adv-x="899" >
<font-face units-per-em="2048" ascent="1485" descent="-563" />
<missing-glyph horiz-adv-x="471" />
<glyph unicode="&#xfb01;" horiz-adv-x="960" d="M92 733v10l10 64h113v371q0 158 89.5 234t236.5 38l-9 -72q-93 28 -163.5 -21t-69.5 -169v-381h225v-74h-225v-733h-84v733h-123zM664 1133q0 37 25.5 62.5t60.5 25.5q37 0 62.5 -25.5t25.5 -62.5t-25.5 -61.5t-62.5 -24.5q-36 0 -61 25t-25 61zM709 0v807h84v-807h-84z " />
<glyph unicode="&#xfb02;" horiz-adv-x="993" d="M92 733v10l10 64h113v371q0 158 89.5 234t236.5 38l-9 -72q-93 28 -163.5 -21t-69.5 -169v-381h225v-74h-225v-733h-84v733h-123zM745 0v1438l76 24h8v-1462h-84z" />
<glyph unicode="&#xfb03;" horiz-adv-x="1460" d="M92 733v10l10 64h113v330q0 158 89.5 234t236.5 38l-9 -72q-93 28 -163.5 -21t-69.5 -169v-340h416v371q0 158 89 234t236 38l-8 -72q-93 28 -163.5 -21t-69.5 -169v-381h225v-74h-225v-733h-84v733h-416v-733h-84v733h-123zM1163 1133q0 37 25.5 62.5t60.5 25.5 q37 0 62.5 -25.5t25.5 -62.5t-25.5 -61.5t-62.5 -24.5q-36 0 -61 25t-25 61zM1208 0v807h84v-807h-84z" />
<glyph unicode="&#xfb04;" horiz-adv-x="1492" d="M92 733v10l10 64h113v330q0 158 89.5 234t236.5 38l-9 -72q-93 28 -163.5 -21t-69.5 -169v-340h416v371q0 158 89 234t236 38l-8 -72q-93 28 -163.5 -21t-69.5 -169v-381h225v-74h-225v-733h-84v733h-416v-733h-84v733h-123zM1245 0v1438l76 24h8v-1462h-84z" />
<glyph horiz-adv-x="0" />
<glyph horiz-adv-x="682" />
<glyph unicode=" "  horiz-adv-x="471" />
<glyph unicode="&#x09;" horiz-adv-x="471" />
<glyph unicode="&#xa0;" horiz-adv-x="471" />
<glyph unicode="!" horiz-adv-x="536" d="M164 82q0 46 29 76t73 30q45 0 76 -30.5t31 -75.5q0 -44 -31 -73t-76 -29q-44 0 -73 29t-29 73zM203 1333h127l-45 -979h-35z" />
<glyph unicode="&#x22;" horiz-adv-x="600" d="M92 1438h148l-54 -498h-43zM360 1438h148l-53 -498h-43z" />
<glyph unicode="#" horiz-adv-x="1189" d="M82 395v74h237l107 403h-211v76h231l103 385h96l-102 -385h262l102 385h97l-105 -385h209v-76h-229l-111 -403h209v-74h-227l-99 -395h-94l102 395h-264l-104 -395h-94l104 395h-219zM416 469h264l106 403h-264z" />
<glyph unicode="$" horiz-adv-x="956" d="M123 94l47 76q71 -62 132.5 -90.5t164.5 -28.5q72 0 127.5 23t86.5 60t46.5 79.5t15.5 87.5q0 95 -71 177t-213 179q-48 32 -75 51t-65 48t-59.5 50.5t-46.5 51t-38 56.5t-21.5 60.5t-8.5 69.5q0 56 17 108t50 97t90 74t130 35v254h94v-252q119 -12 252 -88l-30 -84 q-7 4 -29.5 18t-30 18.5t-27.5 15.5t-30.5 14.5t-29.5 10.5t-34.5 9.5t-36.5 5t-43 2.5q-125 0 -187 -66t-62 -176q0 -40 20.5 -79t69.5 -82.5t76.5 -64.5t92.5 -66l21 -15q157 -107 237 -205t76 -215q-6 -155 -93 -241t-212 -99v-249h-94v249q-64 4 -111.5 14t-85 29.5 t-57.5 34t-55 43.5z" />
<glyph unicode="%" horiz-adv-x="1511" d="M92 1044q0 140 91.5 223t215.5 83q122 0 210.5 -83t88.5 -223q0 -94 -43.5 -164.5t-111 -104.5t-146.5 -34q-124 0 -214.5 81.5t-90.5 221.5zM172 0l1088 1374l57 -45l-1081 -1374zM176 1044q0 -91 63.5 -162t159.5 -71t155.5 70.5t59.5 162.5q0 95 -59.5 166.5 t-157.5 71.5q-95 0 -158 -72.5t-63 -165.5zM815 285q0 140 90.5 221.5t214.5 81.5t211.5 -81.5t87.5 -221.5t-88.5 -222.5t-212.5 -82.5t-213.5 82.5t-89.5 222.5zM897 285q0 -91 63.5 -163.5t159.5 -72.5t155.5 72t59.5 164q0 93 -59.5 164t-157.5 71q-95 0 -158 -71.5 t-63 -163.5z" />
<glyph unicode="&#x26;" horiz-adv-x="1263" d="M106 378q15 147 140 253l164 139l-62 80q-96 124 -80 254q17 131 95.5 194.5t203.5 63.5q111 0 188 -61t111 -152l-78 -37q-70 174 -221 174q-91 0 -146.5 -55.5t-60.5 -136.5q-3 -49 8.5 -89.5t23 -57.5t34.5 -46l469 -608l209 188l57 -61l-209 -195l174 -225h-118 l-117 158l-94 -80q-46 -45 -126 -72.5t-167 -31t-172.5 28t-136.5 95.5q-104 133 -89 280zM202.5 377.5q-13.5 -107.5 61.5 -215.5q53 -72 141 -95.5t177 0t155 83.5l94 79l-370 469l-156 -137q-89 -76 -102.5 -183.5z" />
<glyph unicode="'" horiz-adv-x="331" d="M92 1438h148l-54 -498h-43z" />
<glyph unicode="(" horiz-adv-x="729" d="M164 602q0 249 103 475t272 389l43 -32q-324 -379 -324 -832q0 -138 28.5 -270.5t77.5 -242t102.5 -195t115.5 -158.5l-43 -33q-169 173 -272 410t-103 489z" />
<glyph unicode=")" horiz-adv-x="729" d="M147 -264q62 73 115.5 158.5t102.5 195t77.5 242t28.5 270.5q0 453 -324 832l43 32q169 -163 272 -389t103 -475q0 -252 -103 -489t-272 -410z" />
<glyph unicode="*" horiz-adv-x="780" d="M123 1047l225 106l-225 109l41 71l203 -137l-17 242h80l-16 -242l202 137l41 -71l-225 -109l225 -106l-41 -70l-202 137l16 -242h-80l17 242l-203 -137z" />
<glyph unicode="+" horiz-adv-x="913" d="M102 657v76h314v314h84v-314h311v-76h-311v-313h-84v313h-314z" />
<glyph unicode="," horiz-adv-x="442" d="M92 -293l74 475h160l4 -20l-195 -465z" />
<glyph unicode="-" horiz-adv-x="665" d="M102 434v86l461 60v-86z" />
<glyph unicode="." horiz-adv-x="434" d="M113 82q0 46 29 76t73 30q45 0 76 -30.5t31 -75.5q0 -44 -31 -73t-76 -29q-44 0 -73 29t-29 73z" />
<glyph unicode="/" horiz-adv-x="684" d="M-10 -262l585 1730l87 -28l-590 -1729z" />
<glyph unicode="0" horiz-adv-x="1153" d="M82 670q0 116 21.5 220.5t64 190.5t101.5 149t138.5 97.5t170.5 34.5q151 0 264.5 -93t171 -248.5t57.5 -350.5q0 -194 -57.5 -351.5t-171 -252.5t-264.5 -95t-265.5 95t-172.5 252.5t-58 351.5zM174 670q0 -166 48.5 -307t142 -228.5t213.5 -87.5t212.5 87.5t139.5 228 t47 307.5q0 168 -47 308t-139.5 227t-212.5 87t-213.5 -86.5t-142 -227.5t-48.5 -308z" />
<glyph unicode="1" horiz-adv-x="634" d="M143 1217l246 135h21v-1352h-93v1219l-139 -78z" />
<glyph unicode="2" horiz-adv-x="1044" d="M82 18q279 255 330 304q244 235 330 395q65 120 65 229q0 83 -27 149t-71.5 105.5t-98 60t-110.5 21.5q-93 1 -174 -45t-129 -109h-19l-49 58q157 176 369 176q56 0 111 -14.5t107 -47t91.5 -79.5t63.5 -117t24 -154q1 -76 -18.5 -145.5t-58.5 -140t-116.5 -161.5 t-171 -187t-243.5 -240h635v-76h-830z" />
<glyph unicode="3" horiz-adv-x="1042" d="M113 72l30 67l19 2q129 -98 323 -98q61 0 122 22t114 63t86 110t33 153q0 82 -32 151t-91.5 114.5t-145 61t-192.5 -10.5l-17 14l369 532h-579v80h706l10 -18l-364 -531q108 9 204 -32.5t159 -135t63 -221.5q0 -186 -120 -305t-318 -119q-38 0 -71.5 1.5t-63 6.5 t-51.5 8.5t-46.5 12.5t-36.5 12.5t-34 15.5t-27 14.5t-26.5 15.5t-22.5 14z" />
<glyph unicode="4" horiz-adv-x="1107" d="M41 299l764 1061l18 -8v-1004h234v-76h-234v-272h-92v272h-672zM182 348h549v770z" />
<glyph unicode="5" horiz-adv-x="1044" d="M113 76l28 69l19 2q42 -38 124 -69t189 -31q98 0 180 41t133.5 123.5t51.5 191.5q0 158 -96 251.5t-236 93.5q-96 0 -183 -43t-128 -89l-19 11l74 706h604v-78h-522l-53 -497q52 38 160.5 55t193.5 -2q124 -29 210 -142t87 -266q1 -87 -28 -163.5t-84 -137t-144 -96 t-201 -35.5q-130 0 -226 33.5t-134 71.5z" />
<glyph unicode="6" horiz-adv-x="1095" d="M113 459q0 147 33 276.5t89 225.5t128.5 172.5t155 124.5t164 74.5t159.5 29.5l14 -70l-16 -14q-103 -4 -208 -55.5t-190.5 -136t-145 -203.5t-71.5 -248q51 87 144.5 132.5t191.5 45.5q183 0 302.5 -115t119.5 -303q0 -187 -125.5 -305.5t-310.5 -118.5 q-192 0 -312.5 135t-121.5 353zM213 395q0 -142 96.5 -245t241.5 -103q147 0 242.5 102.5t95.5 245.5q0 144 -92.5 244t-237.5 100q-151 0 -248.5 -100.5t-97.5 -243.5z" />
<glyph unicode="7" horiz-adv-x="978" d="M123 1257v76h770l14 -20l-551 -1313h-102l541 1257h-672z" />
<glyph unicode="8" horiz-adv-x="1126" d="M113 389q0 135 79.5 242.5t206.5 136.5q-81 38 -129.5 108t-48.5 171q0 136 97.5 224.5t246.5 88.5q147 0 243.5 -88.5t96.5 -224.5q0 -101 -47.5 -170.5t-130.5 -106.5q127 -29 207 -137t80 -244q0 -183 -128 -300.5t-325 -117.5q-193 0 -320.5 118t-127.5 300zM207 389 q0 -143 99.5 -242.5t258.5 -99.5q160 0 257.5 99t97.5 243t-99.5 241t-259.5 97q-161 0 -257.5 -97t-96.5 -241zM311 1042q0 -95 71 -170t183 -75q111 0 180.5 75t69.5 170q0 97 -71 171.5t-179 74.5q-112 0 -183 -75t-71 -171z" />
<glyph unicode="9" horiz-adv-x="1095" d="M113 938q0 187 125.5 305.5t310.5 118.5q192 0 312.5 -135t121.5 -353q0 -147 -33 -276.5t-89 -225.5t-128.5 -172.5t-155 -124.5t-164 -74.5t-159.5 -29.5l-14 70l16 14q103 4 208 55.5t190.5 136t144.5 203.5t71 248q-51 -87 -144 -132.5t-191 -45.5q-183 0 -302.5 115 t-119.5 303zM207 938q0 -144 92.5 -244t237.5 -100q151 0 248.5 100.5t97.5 243.5q0 142 -96.5 245t-241.5 103q-147 0 -242.5 -102.5t-95.5 -245.5z" />
<glyph unicode=":" horiz-adv-x="434" d="M113 80q0 46 29 76t73 30q45 0 76 -30.5t31 -75.5q0 -44 -31 -73.5t-76 -29.5q-44 0 -73 29.5t-29 73.5zM113 721q0 46 29 76t73 30q45 0 76 -30.5t31 -75.5q0 -44 -31 -73.5t-76 -29.5q-44 0 -73 29.5t-29 73.5z" />
<glyph unicode=";" horiz-adv-x="438" d="M72 -293l73 475h160l4 -20l-194 -465zM117 721q0 46 29 76t73 30q45 0 76 -30.5t31 -75.5q0 -44 -31 -73.5t-76 -29.5q-44 0 -73 29.5t-29 73.5z" />
<glyph unicode="&#x3c;" horiz-adv-x="1060" d="M82 686v19l836 405v-88l-676 -326l676 -327v-88z" />
<glyph unicode="=" horiz-adv-x="980" d="M102 508v74h777v-74h-777zM102 807v76h777v-76h-777z" />
<glyph unicode="&#x3e;" horiz-adv-x="1060" d="M143 281v88l676 327l-676 326v88l836 -405v-19z" />
<glyph unicode="?" horiz-adv-x="811" d="M61 1106q26 105 113 180.5t223 75.5q141 0 236.5 -88.5t95.5 -233.5q0 -64 -19 -117.5t-49.5 -92t-67.5 -74.5t-73.5 -74t-66 -82t-47 -107t-15.5 -139h-61q-10 77 1 142.5t37 112t60 87.5t70 77.5t66 73.5t49.5 85t19.5 102q0 116 -67 183t-165 67t-166.5 -55.5 t-95.5 -149.5zM262 82q0 46 29.5 76t73.5 30q45 0 75.5 -30.5t30.5 -75.5q0 -44 -30.5 -73t-75.5 -29q-44 0 -73.5 29t-29.5 73z" />
<glyph unicode="@" horiz-adv-x="1777" d="M82 633q0 167 59 317.5t163 262.5t255.5 177.5t327.5 65.5q168 0 319.5 -61t258 -162t169 -237.5t62.5 -282.5q0 -109 -29 -193.5t-77 -133t-104.5 -73t-117.5 -24.5q-85 0 -161 43.5t-87 111.5q-38 -72 -106.5 -112t-153.5 -43q-135 -3 -225 90.5t-84 234.5 q5 143 96.5 240.5t226.5 101.5q85 3 152 -35t107 -112l47 94h47l-53 -350q-12 -72 45.5 -127t146.5 -55q45 0 87 18.5t79 56.5t59.5 107t22.5 160q0 129 -53.5 249.5t-147 213t-231.5 148.5t-295 56q-159 0 -293.5 -58t-226 -158t-142.5 -237t-51 -294t50.5 -292t142.5 -233 t229.5 -154t304.5 -56q255 0 479 133l29 -76q-219 -133 -508 -133q-183 0 -338 63.5t-259.5 173.5t-163 258t-58.5 316zM643 616q-4 -110 59 -183.5t160 -70.5q98 3 164.5 81.5t71.5 189.5q3 112 -61 181.5t-163 66.5t-163.5 -78.5t-67.5 -186.5z" />
<glyph unicode="A" horiz-adv-x="1302" d="M20 0l621 1458h29l612 -1458h-98l-176 414h-713l-176 -414h-99zM328 489h645l-320 781z" />
<glyph unicode="B" horiz-adv-x="1128" d="M184 0v1438q60 10 120 15q42 4 89 4q19 0 39 -1q68 -2 127.5 -12.5t116 -35.5t96.5 -63t64 -97.5t24 -135.5q0 -95 -48 -172.5t-114 -114.5q151 -24 250 -136t99 -267q0 -92 -28 -165.5t-75.5 -121.5t-115.5 -81t-142.5 -49t-162.5 -21q-46 -3 -91 -3q-40 1 -78 3 q-82 4 -170 16zM279 78q78 -12 156 -13h14q71 0 141 9q76 10 141 37t115.5 66.5t79 101.5t28.5 139q0 83 -31.5 149.5t-85.5 108t-122.5 63t-145.5 21.5h-290v-682zM279 834h210q121 0 200 83t79 197q0 65 -24.5 114.5t-66 77.5t-91.5 46t-107 22q-38 3 -72 3q-17 0 -34 -1 q-49 -2 -94 -10v-532z" />
<glyph unicode="C" horiz-adv-x="1458" d="M82 717q0 164 59 305t159.5 237.5t236.5 151.5t288 55q93 0 175 -17t148.5 -48.5t112 -61.5t97.5 -71l-51 -66q-97 88 -223 137.5t-259 49.5q-130 0 -248 -51.5t-204.5 -140.5t-137.5 -214t-51 -266q0 -182 86.5 -336t234 -243t320.5 -89q133 0 267.5 49.5t230.5 132.5 l53 -63q-52 -43 -96.5 -72.5t-112.5 -61t-156.5 -47.5t-195.5 -16q-157 0 -294.5 59.5t-233 160.5t-150.5 237.5t-55 288.5z" />
<glyph unicode="D" horiz-adv-x="1374" d="M184 0v1438q132 22 245 21q55 -1 106 -5q155 -16 271 -51t200 -101.5t139.5 -136t88 -154.5t45.5 -156.5t13 -141.5q0 -50 -8.5 -103.5t-28.5 -116t-52.5 -120.5t-79.5 -117t-110.5 -106t-145.5 -86.5t-184 -59.5q-103 -20 -227 -24q-20 -1 -39 0q-108 0 -233 20zM279 70 q76 -10 149 -9q110 -1 212 21q169 36 290 121.5t190.5 217.5t69.5 292q0 114 -34 218t-104.5 194.5t-178.5 150.5q-108 58 -256 84q-73 13 -157 13q-85 0 -181 -13v-1290z" />
<glyph unicode="E" horiz-adv-x="1067" d="M184 0v1438h723v-76h-631v-490h508v-75h-508v-721h668v-76h-760z" />
<glyph unicode="F" horiz-adv-x="1009" d="M184 0v1438h723v-76h-631v-490h508v-75h-508v-797h-92z" />
<glyph unicode="G" horiz-adv-x="1490" d="M82 717q0 157 59 297t159 238.5t237 156t288 57.5q122 0 229 -31t172 -70.5t132 -96.5l-58 -66q-221 187 -475 187q-174 0 -320 -87.5t-231.5 -242t-85.5 -342.5q0 -186 84 -338.5t234.5 -241t337.5 -88.5q124 0 240 41.5t190 104.5v313h-248v74h342v-426 q-126 -107 -254 -146t-270 -39q-168 0 -312 60.5t-242 162.5t-153 237.5t-55 285.5z" />
<glyph unicode="H" horiz-adv-x="1290" d="M184 0v1438h92v-566h738v566h92v-1438h-92v797h-738v-797h-92z" />
<glyph unicode="I" horiz-adv-x="460" d="M184 0v1438h92v-1438h-92z" />
<glyph unicode="J" horiz-adv-x="798" d="M143 -18v84q141 0 239.5 98.5t98.5 247.5v1026h92v-1026q0 -64 -16 -124.5t-50.5 -116t-83.5 -97.5t-121.5 -67t-158.5 -25z" />
<glyph unicode="K" horiz-adv-x="1165" d="M184 0v1438h95v-668l639 668h114l-655 -695l717 -743h-129l-686 709v-709h-95z" />
<glyph unicode="L" horiz-adv-x="950" d="M184 0v1438h92v-1362h592v-76h-684z" />
<glyph unicode="M" horiz-adv-x="1486" d="M184 0v1448l21 10l540 -616l537 616l21 -10v-1448h-93v1233l-454 -518h-25l-455 518v-1233h-92z" />
<glyph unicode="N" horiz-adv-x="1312" d="M184 0v1444l15 14l841 -647v627h88v-1438h-88v698l-768 586v-1284h-88z" />
<glyph unicode="O" horiz-adv-x="1640" d="M82 717q0 211 96 382.5t265 269t376 97.5q154 0 291.5 -57.5t236 -156.5t155.5 -238t57 -297q0 -157 -57 -296t-155.5 -237.5t-236 -155.5t-291.5 -57q-155 0 -292 57t-234.5 156t-154 237.5t-56.5 295.5zM182 717q0 -189 84.5 -342.5t230.5 -239.5t322 -86 q175 0 321.5 86t232 239.5t85.5 342.5t-85.5 343.5t-232 241.5t-321.5 87q-176 0 -322 -87t-230.5 -241.5t-84.5 -343.5z" />
<glyph unicode="P" horiz-adv-x="1036" d="M184 0v1432q113 27 215 27q45 1 89 -5q140 -18 244 -76t163 -161t59 -234t-53.5 -236t-145.5 -170t-216 -93q-81 -18 -168 -18q-47 0 -95 5v-471h-92zM276 557q49 -5 94 -5q200 0 330 97q160 119 160 334q0 98 -42 179.5t-118.5 133t-184.5 71.5q-50 9 -105 9 q-63 0 -134 -12v-807z" />
<glyph unicode="Q" horiz-adv-x="1640" d="M82 717q0 211 96 382.5t265 269t376 97.5q154 0 291.5 -57.5t236 -156.5t155.5 -238t57 -297q0 -214 -101.5 -387t-275.5 -269l151 -200l-63 -54l-166 218q-141 -54 -285 -54q-155 0 -292 57t-234.5 156t-154 237.5t-56.5 295.5zM182 717q0 -189 84.5 -342.5 t230.5 -239.5t322 -86q127 0 234 43l-148 199l64 55l161 -217q151 85 239.5 240t88.5 348q0 189 -85.5 343.5t-232 241.5t-321.5 87q-176 0 -322 -87t-230.5 -241.5t-84.5 -343.5z" />
<glyph unicode="R" horiz-adv-x="1136" d="M184 0v1432q123 25 228 24q90 0 168 -18q166 -40 260 -154.5t94 -282.5q0 -123 -64.5 -240t-199.5 -181l426 -580h-121l-397 547q-80 -23 -180 -23q-58 0 -122 8v-532h-92zM276 621q65 -10 124 -10q167 -1 283 79q157 108 157 311q0 92 -39 168.5t-112 127.5t-177 71 q-48 9 -102 8q-63 0 -134 -12v-743z" />
<glyph unicode="S" horiz-adv-x="1011" d="M113 106l51 74q145 -127 332 -127q139 0 225 82t86 176q0 65 -20 119t-63 102t-96 87.5t-134 87.5q-71 43 -117.5 74t-95 72t-76 80t-45 88.5t-17.5 106.5q0 62 22 120t65.5 108t117.5 80t168 30q87 0 177.5 -27t150.5 -67l-39 -72q-72 43 -138.5 64.5t-150.5 21.5 q-127 0 -202.5 -71.5t-75.5 -179.5q0 -57 26.5 -109.5t74.5 -96.5t94.5 -76t107.5 -65q356 -194 356 -453v-11q-3 -117 -58 -198q-55 -82 -141 -118q-84 -36 -192 -35h-6q-143 1 -230.5 36t-156.5 97z" />
<glyph unicode="T" horiz-adv-x="970" d="M51 1362v76h869v-76h-390v-1362h-92v1362h-387z" />
<glyph unicode="U" horiz-adv-x="1325" d="M184 492v946h95v-942q0 -121 43 -221.5t132 -164t208 -63.5q120 0 209 63.5t132.5 164.5t43.5 221v942h94v-946q0 -78 -17 -151t-55 -141t-93 -118.5t-136.5 -80.5t-180.5 -30q-122 0 -216 45.5t-149 121.5t-82.5 166t-27.5 188z" />
<glyph unicode="V" horiz-adv-x="1263" d="M51 1438h101l479 -1256l489 1256h92l-569 -1458h-29z" />
<glyph unicode="W" horiz-adv-x="1931" d="M51 1438h101l383 -1213l419 1233h29l410 -1245l397 1225h90l-475 -1458h-29l-411 1245l-418 -1245h-27z" />
<glyph unicode="X" horiz-adv-x="1146" d="M72 0l448 715l-446 723h112l392 -633l397 633h100l-448 -715l448 -723h-106l-396 633l-397 -633h-104z" />
<glyph unicode="Y" horiz-adv-x="1126" d="M51 1438h111l403 -598l410 598h100l-469 -684v-754h-94v754z" />
<glyph unicode="Z" horiz-adv-x="1132" d="M92 16l811 1346h-745v76h870l12 -17l-809 -1345h781v-76h-906z" />
<glyph unicode="[" horiz-adv-x="692" d="M184 -268v1706h385v-76l-290 -2v-1553h290v-75h-385z" />
<glyph unicode="\" horiz-adv-x="684" d="M0 1440l86 28l586 -1730l-82 -27z" />
<glyph unicode="]" horiz-adv-x="692" d="M123 -193h291v1553l-291 2v76h385v-1706h-385v75z" />
<glyph unicode="^" horiz-adv-x="743" d="M72 1042l286 396h27l287 -396l-68 -49l-233 330l-236 -330z" />
<glyph unicode="_" horiz-adv-x="1284" d="M0 -188h1284v-74h-1284v74z" />
<glyph unicode="`" horiz-adv-x="374" d="M61 1163v21h142l110 -242h-45z" />
<glyph unicode="a" d="M61 244q0 115 91.5 197.5t248.5 82.5q86 0 181 -42t129 -85v70q-1 41 -8 79t-26 77t-48 67t-76.5 46t-108.5 18q-129 0 -235 -90l-47 51q34 47 120 81q81 33 155 33h9q72 -1 131.5 -20.5t107.5 -60.5t77 -111.5t35 -165.5l-2 -471h-50l-26 139q-21 -33 -44 -58t-60 -51 t-92 -40.5t-124 -14.5q-80 0 -146 24.5t-107 63.5t-63 86t-22 95zM147 248q0 -86 74 -146.5t178 -60.5q130 0 221 78.5t91 191.5v8q-50 55 -133 95q-81 39 -174 39h-5q-116 0 -184 -60.5t-68 -144.5z" />
<glyph unicode="b" horiz-adv-x="1050" d="M133 0v1438l76 24h8v-817q44 83 140 134.5t202 51.5q182 0 301 -119.5t119 -308.5t-119.5 -308.5t-302.5 -119.5q-104 0 -200 52.5t-140 136.5l-37 -164h-47zM217 395q0 -149 97.5 -249.5t244.5 -100.5q149 0 242.5 104t93.5 254q0 151 -96 255t-242 104 q-148 0 -241.5 -94.5t-98.5 -239.5v-33z" />
<glyph unicode="c" d="M72 403q0 192 114.5 310t309.5 118q92 0 177 -37t148 -104l-59 -59q-110 131 -270 131q-148 0 -242 -103.5t-94 -255.5q0 -150 97.5 -254t252.5 -104q81 0 164.5 36t126.5 81l51 -56q-63 -65 -155.5 -98t-190.5 -33q-191 0 -310.5 119t-119.5 309z" />
<glyph unicode="d" horiz-adv-x="1050" d="M72 403q0 189 120 308.5t300 119.5q107 0 202 -51t137 -135v793l78 24h9v-1462h-48l-39 164q-42 -84 -136.5 -136.5t-198.5 -52.5q-183 0 -303.5 119.5t-120.5 308.5zM156 403q0 -150 94 -254t242 -104t243.5 100.5t95.5 249.5v33q-3 145 -95.5 239.5t-239.5 94.5 q-146 0 -243 -104t-97 -255z" />
<glyph unicode="e" horiz-adv-x="923" d="M72 408q0 188 115 305.5t284 117.5q150 0 259.5 -103t115.5 -290h-688v-22q0 -78 25 -145q29 -76 82 -124.5t121.5 -75t143.5 -26.5q150 0 283 82l39 -61q-124 -91 -328 -91q-199 0 -325.5 121t-126.5 312zM174 512h574q-10 111 -88.5 180.5t-188.5 69.5 q-64 0 -120 -25.5t-92 -64t-58 -80.5t-27 -80z" />
<glyph unicode="f" horiz-adv-x="581" d="M92 733v10l10 64h113v371q0 158 89 234q60 51 145 51q43 0 92 -13l-9 -72q-34 10 -65 10q-54 0 -99 -31q-70 -49 -69 -169v-381h225v-74h-225v-733h-84v733h-123z" />
<glyph unicode="g" horiz-adv-x="960" d="M31 -254q0 202 241 266q-43 7 -73.5 51t-30.5 97q0 55 40 101.5t95 47.5q-73 39 -112 105t-39 139q0 112 78.5 195t220.5 83q55 0 113 -18.5t91 -48.5l195 43h18v-96h-170q24 -32 37 -76t13 -82q0 -113 -82.5 -192.5t-214.5 -79.5q-197 0 -197 -121q0 -64 52 -92.5 t155 -28.5q93 0 171 -15.5t141.5 -49t99.5 -91.5t36 -137q0 -62 -27 -112t-71 -82t-103 -53.5t-120 -30.5t-125 -9q-63 0 -122 9t-116 30.5t-99.5 53.5t-68.5 82t-26 112zM119 -254q0 -57 31.5 -100.5t83 -68t111 -36.5t122.5 -12q65 0 125.5 12t113.5 36.5t85 68t32 100.5 q0 109 -101 166t-259 57t-251 -56.5t-93 -166.5zM236 553q0 -35 13 -70t38 -66t67.5 -50t96.5 -19t97 19t68 50t37.5 66t12.5 70q0 36 -12.5 71.5t-37.5 67t-68 51t-97 19.5q-106 0 -160.5 -64.5t-54.5 -144.5z" />
<glyph unicode="h" horiz-adv-x="976" d="M133 0v1438l76 24h8v-790q46 71 128.5 115t170.5 44q158 0 258 -101.5t100 -262.5v-467h-86v467q0 74 -25 132t-66 91.5t-88.5 50.5t-98.5 17q-42 0 -89.5 -16t-93 -47.5t-76.5 -87t-34 -124.5v-483h-84z" />
<glyph unicode="i" horiz-adv-x="419" d="M123 1133q0 37 25.5 62.5t60.5 25.5q37 0 62.5 -25.5t25.5 -62.5t-25.5 -61.5t-62.5 -24.5q-36 0 -61 25t-25 61zM168 0v807h84v-807h-84z" />
<glyph unicode="j" horiz-adv-x="423" d="M-72 -520l11 71q28 -6 54 -6q65 0 111 38q66 53 66 151v1073h84v-1063q0 -146 -89 -222q-62 -52 -152 -52q-40 0 -85 10zM125 1133q0 37 25.5 62.5t62.5 25.5q36 0 62 -26t26 -62t-26 -61t-62 -25q-37 0 -62.5 24.5t-25.5 61.5z" />
<glyph unicode="k" horiz-adv-x="839" d="M133 0v1438l76 24h8v-999l406 344h116l-440 -379l489 -428h-116l-455 387v-387h-84z" />
<glyph unicode="l" horiz-adv-x="350" d="M133 0v1438l76 24h8v-1462h-84z" />
<glyph unicode="m" horiz-adv-x="1390" d="M133 0v807h47l37 -117q29 60 89 100.5t143 40.5q200 0 274 -178q25 79 99.5 128.5t164.5 49.5q141 0 221 -88.5t80 -236.5v-506h-84v506q0 130 -65 191t-160 61q-35 0 -71.5 -13.5t-71.5 -41t-58.5 -79t-25.5 -118.5v-506h-84v506q0 130 -65.5 191t-160.5 61 q-36 0 -73.5 -13.5t-72.5 -41.5t-57 -79t-22 -118v-506h-84z" />
<glyph unicode="n" horiz-adv-x="976" d="M133 0v807h47l37 -135q46 71 128 115t169 44q159 0 259.5 -101.5t100.5 -262.5v-467h-86v467q0 74 -25 132t-67 91.5t-89.5 50.5t-98.5 17q-34 0 -72 -10t-77.5 -33t-70.5 -55.5t-51 -83t-20 -109.5v-467h-84z" />
<glyph unicode="o" horiz-adv-x="989" d="M72 406q0 131 60.5 229.5t155.5 147t208 48.5q112 0 206.5 -48.5t155 -147t60.5 -229.5t-60.5 -231t-156.5 -150t-209 -50q-110 0 -204.5 50t-155 150t-60.5 231zM156 406q0 -153 99 -257t241 -104q144 0 239.5 103.5t95.5 257.5q0 155 -98 255.5t-241 100.5 q-145 0 -240.5 -100.5t-95.5 -255.5z" />
<glyph unicode="p" horiz-adv-x="1050" d="M133 -524v1331h47l37 -162q47 84 140.5 135t197.5 51q183 0 303.5 -119.5t120.5 -308.5t-120 -308.5t-302 -119.5q-107 0 -203.5 51.5t-136.5 137.5v-662l-76 -26h-8zM217 379q5 -144 97.5 -239t240.5 -95q146 0 243 103.5t97 254.5t-94.5 255t-243.5 104 q-147 0 -243.5 -100.5t-96.5 -247.5v-35z" />
<glyph unicode="q" horiz-adv-x="1050" d="M72 403q0 189 120.5 308.5t303.5 119.5q104 0 198.5 -51.5t136.5 -134.5l39 162h48v-1305l-76 -26h-11v688q-39 -86 -134.5 -137.5t-204.5 -51.5q-180 0 -300 119.5t-120 308.5zM156 403q0 -151 97 -254.5t243 -103.5q147 0 239.5 95t95.5 239v35q0 148 -95.5 248 t-243.5 100t-242 -104t-94 -255z" />
<glyph unicode="r" horiz-adv-x="583" d="M133 0v807h47l37 -98q25 52 80 87t127 35q47 0 108 -24l-18 -74l-10 -2q-45 25 -92 25q-135 0 -195 -148v-608h-84z" />
<glyph unicode="s" horiz-adv-x="749" d="M92 61l41 68q32 -27 93 -54.5t130 -27.5q83 0 150 39.5t67 112.5q0 62 -53 103.5t-166 72.5q-129 37 -190.5 95t-61.5 144q0 96 74.5 156.5t196.5 60.5q19 0 35.5 -1t33.5 -3.5t28 -4t27.5 -6.5t23.5 -6.5t24.5 -8.5t22 -9t24 -10.5t22.5 -9.5l-34 -70q-65 35 -107 47.5 t-100 12.5q-78 0 -131.5 -36t-53.5 -112q0 -61 50 -98t143 -65q60 -17 104.5 -36.5t86 -49t63.5 -71.5t22 -95q0 -114 -83 -169t-224 -55q-35 0 -68.5 5.5t-56.5 12.5t-48.5 18.5t-37 18.5t-29 18.5t-18.5 12.5z" />
<glyph unicode="t" horiz-adv-x="602" d="M61 733v10l11 64h131v289l78 24h8v-313h215v-74h-215v-536q0 -82 68 -121q38 -22 82 -22q35 0 73 14l18 -68q-53 -20 -102 -20q-10 0 -22 2q-60 6 -105 31t-71.5 73.5t-26.5 110.5v536h-142z" />
<glyph unicode="u" horiz-adv-x="997" d="M123 340v467h86v-467q0 -74 25 -132t67 -91.5t89.5 -50.5t98.5 -17q34 0 72 10t77.5 33t70.5 55.5t51 83t20 109.5v467h84v-807h-47l-37 135q-45 -75 -126 -117.5t-171 -42.5q-158 0 -259 102t-101 263z" />
<glyph unicode="v" horiz-adv-x="901" d="M51 807h92l308 -672l313 672h86l-387 -827h-27z" />
<glyph unicode="w" horiz-adv-x="1314" d="M51 807h86l232 -651l276 680h29l274 -680l236 651h80l-303 -827h-27l-275 690l-282 -690h-29z" />
<glyph unicode="x" horiz-adv-x="901" d="M61 807h111l274 -344l291 344h101l-340 -406l342 -401h-103l-295 340l-274 -340h-102l323 399z" />
<glyph unicode="y" horiz-adv-x="901" d="M51 807h94l304 -657l311 657h90l-639 -1327h-84l-12 20l280 551z" />
<glyph unicode="z" horiz-adv-x="831" d="M82 23l536 710h-505l-2 74h630l9 -25l-521 -706h519v-76h-654z" />
<glyph unicode="{" horiz-adv-x="831" d="M102 551v72h50q51 0 87.5 15t55.5 36t29.5 56t13 62.5t2.5 67.5v232q0 63 9 113t33.5 97t64.5 77t106.5 46t155.5 11l-11 -80q-52 4 -93 -3t-68.5 -20t-47 -36.5t-30 -46t-16.5 -55t-7.5 -57.5t-1.5 -59v-221q0 -110 -28 -173t-84 -99q57 -34 85.5 -97t28.5 -174v-225 q0 -50 3 -83.5t18 -76.5t42 -67.5t78 -39.5t123 -9l9 -80q-89 -5 -155 11t-106 46t-64.5 77t-33 97t-8.5 113v235q0 40 -2.5 67.5t-13 62.5t-30 56.5t-55.5 36.5t-87 15h-52z" />
<glyph unicode="|" horiz-adv-x="501" d="M205 -268v1732h92v-1732h-92z" />
<glyph unicode="}" horiz-adv-x="831" d="M123 -266l8 80q72 -6 123 9t78 39.5t42 67.5t18 76.5t3 83.5v225q0 111 29 174t86 97q-56 36 -84.5 99t-28.5 173v221q0 34 -1.5 59t-7.5 57.5t-16.5 55t-30 46t-47 36.5t-68.5 20t-93 3l-10 80q89 5 155.5 -11t106.5 -46t64.5 -77t33.5 -97t9 -113v-232q0 -40 2.5 -67.5 t13 -62.5t29.5 -56t55.5 -36t87.5 -15h49v-72h-51q-51 0 -87 -15t-55.5 -36.5t-30.5 -56.5t-13.5 -63t-2.5 -67v-235q0 -63 -8.5 -113t-32.5 -97t-64 -77t-106 -46t-155 -11z" />
<glyph unicode="~" horiz-adv-x="759" d="M102 444q24 80 68 108t109 28q37 0 104.5 -29t97.5 -29q39 0 63 11t44 47l69 -19q-24 -81 -67 -109t-109 -28q-37 0 -104.5 29.5t-97.5 29.5q-27 0 -43 -3t-33.5 -16t-30.5 -38z" />
<glyph unicode="&#xa1;" horiz-adv-x="536" d="M164 795q0 44 30.5 73t75.5 29q44 0 73.5 -29t29.5 -73q0 -46 -29.5 -76.5t-73.5 -30.5t-75 31t-31 76zM207 -457l45 979h35l47 -979h-127z" />
<glyph unicode="&#xa2;" d="M72 694q0 180 100.5 297.5t273.5 134.5v269h84v-269q175 -16 291 -141l-55 -63q-119 137 -272 137q-148 0 -242 -106t-94 -259q0 -151 97 -256.5t251 -105.5q80 0 161 37t128 82l53 -54q-59 -62 -142.5 -96t-175.5 -39v-262h-84v264q-168 19 -271 137.5t-103 292.5z" />
<glyph unicode="&#xa3;" horiz-adv-x="1073" d="M92 80q93 -2 166 27t113 81.5t48.5 124.5t-28.5 156h-207v76h178q-20 41 -58 100.5t-65.5 102.5t-49 106.5t-21.5 128.5q0 170 103 274.5t276 104.5q96 0 180 -35.5t129 -87.5l-51 -59q-44 45 -114 75.5t-146 30.5q-122 0 -202.5 -83.5t-80.5 -219.5q0 -64 23.5 -126 t53 -104.5t66 -101t54.5 -106.5h239v-76h-213q17 -49 21 -106t-14 -123.5t-60 -116.5q56 -44 111.5 -60t134.5 -16q92 0 172.5 44.5t107.5 103.5l64 -48q-22 -50 -62 -86t-89.5 -54.5t-96.5 -27t-94 -8.5q-70 0 -126.5 11t-79 20t-61 31t-42.5 24q-49 -26 -99.5 -37.5 t-105 -15t-60.5 -4.5z" />
<glyph unicode="&#xa4;" horiz-adv-x="1189" d="M133 324l107 102q-107 116 -107 295q0 182 107 295l-107 104l64 70l106 -107q125 101 291 101q164 0 293 -101l106 107l64 -70l-107 -104q107 -116 107 -295q0 -176 -107 -295l107 -102l-64 -70l-106 104q-131 -98 -293 -98q-163 0 -291 98l-106 -104zM225 721 q0 -99 47.5 -188t133.5 -144t188 -55q156 0 263.5 117t107.5 270q0 154 -107.5 270.5t-263.5 116.5q-155 0 -262 -116.5t-107 -270.5z" />
<glyph unicode="&#xa5;" horiz-adv-x="1124" d="M51 1333h109l403 -575l410 575h100l-420 -588h291v-75h-340v-150h340v-76h-340v-444h-94v444h-342v76h342v150h-342v75h295z" />
<glyph unicode="&#xa6;" horiz-adv-x="501" d="M205 -268v684h92v-684h-92zM205 780v684h92v-684h-92z" />
<glyph unicode="&#xa7;" horiz-adv-x="815" d="M92 -195l49 70q36 -36 104 -67t148 -31q88 0 162 56.5t74 148.5q0 83 -58.5 138t-185.5 103q-57 22 -101.5 46.5t-88 61t-67.5 87.5t-24 112q0 87 48 160t139 107q-89 53 -131.5 127t-42.5 157q0 124 81.5 203.5t215.5 79.5q59 0 113 -15.5t81 -30t74 -44.5l-39 -70 q-117 84 -231 84q-82 0 -143.5 -56.5t-61.5 -150.5q0 -85 58.5 -149t156.5 -101q145 -55 223 -129t78 -180q0 -87 -49.5 -154t-132.5 -112q85 -42 133.5 -111.5t48.5 -156.5q0 -134 -93 -210.5t-245 -76.5q-64 0 -116 10.5t-90 32t-51 31t-36 30.5zM197 528 q0 -78 69.5 -138.5t165.5 -84.5q75 12 138 72t63 145q0 28 -12.5 57.5t-40.5 62t-81.5 61.5t-125.5 49q-30 -7 -58.5 -21.5t-56 -39.5t-44.5 -67.5t-17 -95.5z" />
<glyph unicode="&#xa8;" horiz-adv-x="593" d="M61 1061q0 40 24 65t62 25q40 0 65.5 -25t25.5 -65q0 -38 -25.5 -62t-65.5 -24q-38 0 -62 24t-24 62zM354 1061q0 39 24.5 64.5t61.5 25.5q40 0 66 -25t26 -65q0 -38 -26 -62t-66 -24q-37 0 -61.5 24t-24.5 62z" />
<glyph unicode="&#xa9;" horiz-adv-x="1638" d="M82 717q0 153 54 290t149 238.5t234 161t300 59.5t299.5 -59.5t234 -161t149.5 -238.5t54 -290q0 -152 -54 -288.5t-149.5 -237.5t-234 -160.5t-299.5 -59.5t-300 59.5t-234 160.5t-149 237.5t-54 288.5zM166 717q0 -181 82 -334t232.5 -245.5t338.5 -92.5 q187 0 338.5 92.5t234.5 246t83 333.5q0 182 -83 336t-234.5 247t-338.5 93q-188 0 -338.5 -93t-232.5 -247t-82 -336zM467 715q0 -92 42.5 -174.5t129.5 -137.5t201 -55q174 0 274 105l-47 53q-41 -38 -101 -61t-124 -23q-88 0 -153.5 45t-96.5 110.5t-31 137.5 q0 55 17.5 107t50.5 95t89 69t126 26q121 0 217 -82l41 65q-46 37 -114 63.5t-140 26.5q-117 0 -205 -52.5t-132 -135.5t-44 -182z" />
<glyph unicode="&#xaa;" horiz-adv-x="772" d="M102 1137q0 89 67 152t187 63q30 0 57 -4.5t51 -13.5t38 -16t36.5 -20t28.5 -16v78q-1 24 -5.5 47t-17 50t-32.5 46.5t-54 33t-79 13.5q-73 0 -150 -43l-34 52q32 24 88 41t102 16q116 -3 186.5 -68.5t77.5 -195.5l-2 -414h-37l-37 92q-14 -37 -75.5 -73.5t-139.5 -36.5 q-114 0 -185 62.5t-71 154.5zM184 1137q0 -71 54 -115.5t120 -44.5q81 0 138 47t71 100v86q-3 2 -23.5 17t-28 19.5t-29 16t-38 16t-42.5 9t-54 4.5q-69 0 -118.5 -42t-49.5 -113z" />
<glyph unicode="&#xab;" horiz-adv-x="1015" d="M72 387v12l417 437l56 -54l-361 -385l361 -377l-60 -57zM410 387v12l417 437l56 -54l-361 -385l361 -377l-60 -57z" />
<glyph unicode="&#xac;" horiz-adv-x="923" d="M102 469v76h719v-207h-84v131h-635z" />
<glyph unicode="&#xad;" horiz-adv-x="665" d="M102 434v86l461 60v-86z" />
<glyph unicode="&#xae;" horiz-adv-x="1638" d="M82 717q0 153 54 290t149 238.5t234 161t300 59.5t299.5 -59.5t234 -161t149.5 -238.5t54 -290q0 -152 -54 -288.5t-149.5 -237.5t-234 -160.5t-299.5 -59.5t-300 59.5t-234 160.5t-149 237.5t-54 288.5zM166 717q0 -181 82 -334t232.5 -245.5t338.5 -92.5 q187 0 338.5 92.5t234.5 246t83 333.5q0 182 -83 336t-234.5 247t-338.5 93q-188 0 -338.5 -93t-232.5 -247t-82 -336zM612 362v719q136 24 238.5 6.5t162.5 -76.5t60 -147q0 -66 -36 -117.5t-91 -82.5l187 -302h-105l-166 275q-73 -17 -166 -2v-273h-84zM696 711 q130 -22 209.5 25t79.5 128q0 85 -81 127t-208 23v-303z" />
<glyph unicode="&#xaf;" horiz-adv-x="534" d="M61 1024v76h412v-76h-412z" />
<glyph unicode="&#xb0;" horiz-adv-x="722" d="M82 1186q0 121 81 200.5t197 79.5q117 0 199 -79.5t82 -200.5q0 -123 -77 -201t-204 -78q-126 0 -202 78t-76 201zM158 1186q0 -93 56 -154t146 -61q92 0 148.5 60.5t56.5 154.5q0 93 -56 153t-149 60q-90 0 -146 -60t-56 -153z" />
<glyph unicode="&#xb1;" horiz-adv-x="919" d="M102 307v76h715v-76h-715zM102 760v74h314v233h84v-233h317v-74h-317v-238h-84v238h-314z" />
<glyph unicode="&#xb2;" horiz-adv-x="641" d="M61 958l42 33q183 146 247 212q104 110 105 198q0 76 -40 112.5t-102 38.5q-48 0 -93.5 -25.5t-65.5 -64.5h-11l-49 29q27 56 88.5 90.5t130.5 34.5q92 0 155.5 -56t63.5 -167q0 -43 -24.5 -93t-54 -87.5t-80.5 -86.5t-76 -70t-70 -57h332v-59h-489z" />
<glyph unicode="&#xb3;" horiz-adv-x="665" d="M82 1008l37 47h18q72 -72 170 -72q74 0 127 43t53 115q0 76 -63.5 118.5t-163.5 20.5l-12 14l178 246h-309v59h413l9 -18l-172 -242q79 -5 137.5 -57t58.5 -141q0 -42 -14.5 -80t-43.5 -70t-80 -51.5t-116 -19.5q-74 0 -139 29.5t-88 58.5z" />
<glyph unicode="&#xb4;" horiz-adv-x="374" d="M61 942l111 242h141v-21l-207 -221h-45z" />
<glyph unicode="&#xb5;" horiz-adv-x="1007" d="M133 -524v1331h84v-467q0 -60 17 -109.5t45.5 -82t65.5 -55t76 -32.5t79 -10q43 0 90.5 17t93 49.5t75 91t29.5 131.5v467h86v-807h-47l-39 137q-41 -74 -123 -118t-173 -44t-168 36.5t-107 101.5v-611l-76 -26h-8z" />
<glyph unicode="&#xb6;" horiz-adv-x="1005" d="M82 1016q0 187 132.5 303.5t332.5 116.5h377v-76h-127v-1628h-95v1628h-104l-2 -1628h-92v858q-181 28 -301.5 140t-120.5 286z" />
<glyph unicode="&#xb7;" horiz-adv-x="434" d="M113 496q0 46 29 76t73 30q45 0 76 -30.5t31 -75.5q0 -44 -31 -73.5t-76 -29.5q-44 0 -73 29.5t-29 73.5z" />
<glyph unicode="&#xb8;" horiz-adv-x="448" d="M61 -332l9 70q35 -17 76 -17.5t76 13.5t58 47.5t23 79.5q0 51 -27 89.5t-65 49.5v10l53 19q41 -8 82 -52.5t41 -115.5q0 -52 -20 -94.5t-53.5 -68.5t-75 -39.5t-88 -11t-89.5 20.5z" />
<glyph unicode="&#xb9;" horiz-adv-x="471" d="M92 1503l197 115h18v-678h-74v567l-106 -59z" />
<glyph unicode="&#xba;" horiz-adv-x="751" d="M82 1268q0 150 82.5 250t212.5 100q131 0 212 -99.5t81 -250.5q0 -148 -82 -248t-211 -100q-131 0 -213 99.5t-82 248.5zM162 1268q0 -46 12.5 -94t37 -93t67.5 -73.5t98 -28.5t98 28.5t66.5 73.5t35 93t11.5 94q0 48 -11.5 96.5t-35 94t-66.5 74t-98 28.5t-98.5 -28.5 t-68 -74t-36.5 -94t-12 -96.5z" />
<glyph unicode="&#xbb;" horiz-adv-x="1015" d="M133 16l361 385l-361 377l60 58l413 -424v-13l-418 -436zM471 16l360 385l-360 377l59 58l414 -424v-13l-418 -436z" />
<glyph unicode="&#xbc;" horiz-adv-x="1470" d="M154 1298l196 115h19v-678h-74v568l-107 -60zM190 0l1102 1436l45 -35l-1095 -1432zM799 137l18 -20h354v-117h72v117h78v55h-76l-2 496l-18 10zM907 172l264 340v-340h-264z" />
<glyph unicode="&#xbd;" horiz-adv-x="1519" d="M154 1298l196 115h19v-678h-74v568l-107 -60zM172 0l1102 1436l45 -35l-1096 -1432zM889 18q13 11 39 31q185 147 248 213q106 111 106 199q0 76 -39.5 112.5t-101.5 38.5q-48 0 -94 -25.5t-66 -64.5h-10l-49 29q27 56 88.5 90.5t130.5 34.5q92 0 155.5 -56t63.5 -167 q0 -43 -24.5 -93t-54 -87.5t-80.5 -86.5t-76 -70t-70 -57h331v-59h-489z" />
<glyph unicode="&#xbe;" horiz-adv-x="1579" d="M133 803l37 47h18q72 -72 170 -72q74 0 127.5 43t53.5 115q0 76 -64 118.5t-164 20.5l-12 15l178 245h-309v60h414l8 -19l-172 -241q79 -5 137.5 -57.5t58.5 -141.5q0 -42 -14.5 -80t-43.5 -70t-80 -51.5t-116 -19.5q-74 0 -139 29.5t-88 58.5zM299 0l1102 1436l45 -35 l-1096 -1432zM889 137l18 -20h355v-117h71v117h78v55h-76l-2 496l-18 10zM997 172l265 340v-340h-265z" />
<glyph unicode="&#xbf;" horiz-adv-x="667" d="M-20 -164q0 64 19 117.5t49.5 92t67 74.5t73 74t66 82t47 107t15.5 139h62q10 -77 -1 -142.5t-37 -112t-60 -87.5t-70 -77.5t-66 -73.5t-49.5 -85t-19.5 -102q0 -116 66.5 -183t164.5 -67t166.5 55.5t95.5 149.5l78 -26q-26 -105 -113 -180.5t-223 -75.5q-141 0 -236 88 t-95 233zM238 795q0 44 30.5 73t75.5 29q44 0 73 -29t29 -73q0 -46 -29 -76.5t-73 -30.5t-75 31t-31 76z" />
<glyph unicode="&#xc0;" horiz-adv-x="1302" d="M20 0l621 1458h29l612 -1458h-98l-176 414h-713l-176 -414h-99zM328 489h645l-320 781zM430 1751v21h141l111 -242h-45z" />
<glyph unicode="&#xc1;" horiz-adv-x="1302" d="M20 0l621 1458h29l612 -1458h-98l-176 414h-713l-176 -414h-99zM328 489h645l-320 781zM625 1530l110 242h142v-21l-207 -221h-45z" />
<glyph unicode="&#xc2;" horiz-adv-x="1302" d="M20 0l621 1458h29l612 -1458h-98l-176 414h-713l-176 -414h-99zM328 489h645l-320 781zM438 1530l160 242h107l159 -242h-55l-158 139l-157 -139h-56z" />
<glyph unicode="&#xc3;" horiz-adv-x="1302" d="M20 0l621 1458h29l612 -1458h-98l-176 414h-713l-176 -414h-99zM328 489h645l-320 781zM406 1597q14 57 50.5 90t92.5 33q38 0 107 -28.5t96 -28.5q33 0 51 10.5t37 38.5l55 -26q-14 -57 -50.5 -90t-92.5 -33q-38 0 -107 28.5t-96 28.5q-35 0 -52.5 -9.5t-35.5 -41.5z " />
<glyph unicode="&#xc4;" horiz-adv-x="1302" d="M20 0l621 1458h29l612 -1458h-98l-176 414h-713l-176 -414h-99zM328 489h645l-320 781zM416 1649q0 40 24 65t62 25q40 0 65 -25t25 -65q0 -38 -25 -62t-65 -24q-38 0 -62 24t-24 62zM709 1649q0 39 24.5 64.5t61.5 25.5q40 0 66 -25t26 -65q0 -38 -26 -62t-66 -24 q-37 0 -61.5 24t-24.5 62z" />
<glyph unicode="&#xc5;" horiz-adv-x="1302" d="M20 0l578 1358q-74 17 -120 77t-46 138q0 93 63 156t158 63t158 -63t63 -156q0 -78 -45.5 -137t-117.5 -78l571 -1358h-98l-176 414h-713l-176 -414h-99zM328 489h645l-320 781zM508 1573q0 -63 41 -107.5t104 -44.5t104.5 44.5t41.5 107.5q0 62 -41 104.5t-105 42.5 t-104.5 -42.5t-40.5 -104.5z" />
<glyph unicode="&#xc6;" horiz-adv-x="1941" d="M-20 0l1136 1438h666v-76h-631v-479h508v-76h-508v-731h668v-76h-760v414h-645l-324 -414h-110zM471 489h588v758z" />
<glyph unicode="&#xc7;" horiz-adv-x="1458" d="M82 717q0 164 59 305t159.5 237.5t236.5 151.5t288 55q93 0 175 -16.5t148 -47t112.5 -60.5t97.5 -70l-51 -70q-97 88 -223 138.5t-259 50.5q-174 0 -321 -88t-233.5 -243t-86.5 -343q0 -137 51 -261t137 -213.5t204.5 -142.5t248.5 -53q133 0 267 50.5t231 133.5l53 -63 q-48 -40 -90.5 -68.5t-104.5 -58.5t-142 -47t-175 -21q39 -46 39 -112q0 -52 -19.5 -94.5t-53 -68.5t-75 -39.5t-88 -11t-89.5 20.5l8 70q35 -17 76 -17.5t76 13.5t58 47.5t23 79.5q0 67 -45 112q-200 10 -359 112.5t-246 269t-87 362.5z" />
<glyph unicode="&#xc8;" horiz-adv-x="1067" d="M184 0v1438h723v-76h-631v-490h508v-75h-508v-721h668v-76h-760zM389 1751v21h141l111 -242h-45z" />
<glyph unicode="&#xc9;" horiz-adv-x="1067" d="M184 0v1438h723v-76h-631v-490h508v-75h-508v-721h668v-76h-760zM428 1530l111 242h141v-21l-207 -221h-45z" />
<glyph unicode="&#xca;" horiz-adv-x="1067" d="M184 0v1438h723v-76h-631v-490h508v-75h-508v-721h668v-76h-760zM344 1530l160 242h106l160 -242h-55l-158 139l-158 -139h-55z" />
<glyph unicode="&#xcb;" horiz-adv-x="1067" d="M184 0v1438h723v-76h-631v-490h508v-75h-508v-721h668v-76h-760zM311 1649q0 40 24 65t62 25q40 0 65 -25t25 -65q0 -38 -25 -62t-65 -24q-38 0 -62 24t-24 62zM604 1649q0 39 24.5 64.5t61.5 25.5q40 0 66 -25t26 -65q0 -38 -26 -62t-66 -24q-37 0 -61.5 24t-24.5 62z " />
<glyph unicode="&#xcc;" horiz-adv-x="460" d="M25 1751v21h141l110 -242h-45zM184 0v1438h92v-1438h-92z" />
<glyph unicode="&#xcd;" horiz-adv-x="460" d="M184 0v1438h92v-1438h-92zM184 1530l111 242h141v-21l-207 -221h-45z" />
<glyph unicode="&#xce;" horiz-adv-x="460" d="M16 1530l160 242h107l159 -242h-55l-158 139l-157 -139h-56zM184 0v1438h92v-1438h-92z" />
<glyph unicode="&#xcf;" horiz-adv-x="460" d="M-6 1649q0 40 24 65t62 25q40 0 65 -25t25 -65q0 -38 -25 -62t-65 -24q-38 0 -62 24t-24 62zM184 0v1438h92v-1438h-92zM287 1649q0 39 24.5 64.5t61.5 25.5q40 0 66 -25t26 -65q0 -38 -26 -62t-66 -24q-37 0 -61.5 24t-24.5 62z" />
<glyph unicode="&#xd0;" horiz-adv-x="1425" d="M20 676v76h216v686q135 19 254.5 19.5t214 -16.5t176 -46t142.5 -70t111 -88t84.5 -102t59 -108.5t38.5 -110.5t20.5 -106t6.5 -97q0 -65 -14.5 -135.5t-49 -152.5t-91.5 -152.5t-142 -136t-201 -102t-267.5 -51t-341.5 16.5v676h-216zM330 72q192 -24 361 12t290 120.5 t190.5 216.5t69.5 292q0 114 -34 217.5t-104.5 194t-178.5 149.5t-256 84.5t-338 -0.5v-606h409v-76h-409v-604z" />
<glyph unicode="&#xd1;" horiz-adv-x="1312" d="M184 0v1444l15 14l841 -647v627h88v-1438h-88v698l-768 586v-1284h-88zM422 1597q14 57 50.5 90t92.5 33q38 0 107 -28.5t96 -28.5q33 0 51 10.5t37 38.5l55 -26q-14 -57 -50.5 -90t-92.5 -33q-38 0 -107 28.5t-96 28.5q-35 0 -52.5 -9.5t-35.5 -41.5z" />
<glyph unicode="&#xd2;" horiz-adv-x="1640" d="M82 717q0 211 96 382.5t265 269t376 97.5q154 0 291.5 -57.5t236 -156.5t155.5 -238t57 -297q0 -157 -57 -296t-155.5 -237.5t-236 -155.5t-291.5 -57q-155 0 -292 57t-234.5 156t-154 237.5t-56.5 295.5zM182 717q0 -189 84.5 -342.5t230.5 -239.5t322 -86 q175 0 321.5 86t232 239.5t85.5 342.5t-85.5 343.5t-232 241.5t-321.5 87q-176 0 -322 -87t-230.5 -241.5t-84.5 -343.5zM600 1751v21h141l111 -242h-45z" />
<glyph unicode="&#xd3;" horiz-adv-x="1640" d="M82 717q0 211 96 382.5t265 269t376 97.5q154 0 291.5 -57.5t236 -156.5t155.5 -238t57 -297q0 -157 -57 -296t-155.5 -237.5t-236 -155.5t-291.5 -57q-155 0 -292 57t-234.5 156t-154 237.5t-56.5 295.5zM182 717q0 -189 84.5 -342.5t230.5 -239.5t322 -86 q175 0 321.5 86t232 239.5t85.5 342.5t-85.5 343.5t-232 241.5t-321.5 87q-176 0 -322 -87t-230.5 -241.5t-84.5 -343.5zM809 1530l111 242h141v-21l-207 -221h-45z" />
<glyph unicode="&#xd4;" horiz-adv-x="1640" d="M82 717q0 211 96 382.5t265 269t376 97.5q154 0 291.5 -57.5t236 -156.5t155.5 -238t57 -297q0 -157 -57 -296t-155.5 -237.5t-236 -155.5t-291.5 -57q-155 0 -292 57t-234.5 156t-154 237.5t-56.5 295.5zM182 717q0 -189 84.5 -342.5t230.5 -239.5t322 -86 q175 0 321.5 86t232 239.5t85.5 342.5t-85.5 343.5t-232 241.5t-321.5 87q-176 0 -322 -87t-230.5 -241.5t-84.5 -343.5zM606 1530l160 242h106l160 -242h-55l-158 139l-157 -139h-56z" />
<glyph unicode="&#xd5;" horiz-adv-x="1640" d="M82 717q0 211 96 382.5t265 269t376 97.5q154 0 291.5 -57.5t236 -156.5t155.5 -238t57 -297q0 -157 -57 -296t-155.5 -237.5t-236 -155.5t-291.5 -57q-155 0 -292 57t-234.5 156t-154 237.5t-56.5 295.5zM182 717q0 -189 84.5 -342.5t230.5 -239.5t322 -86 q175 0 321.5 86t232 239.5t85.5 342.5t-85.5 343.5t-232 241.5t-321.5 87q-176 0 -322 -87t-230.5 -241.5t-84.5 -343.5zM575 1597q14 57 51 90t93 33q38 0 107 -28.5t96 -28.5q33 0 51 10.5t37 38.5l55 -26q-14 -57 -50.5 -90t-92.5 -33q-38 0 -107 28.5t-96 28.5 q-35 0 -52.5 -9.5t-35.5 -41.5z" />
<glyph unicode="&#xd6;" horiz-adv-x="1640" d="M82 717q0 211 96 382.5t265 269t376 97.5q154 0 291.5 -57.5t236 -156.5t155.5 -238t57 -297q0 -157 -57 -296t-155.5 -237.5t-236 -155.5t-291.5 -57q-155 0 -292 57t-234.5 156t-154 237.5t-56.5 295.5zM182 717q0 -189 84.5 -342.5t230.5 -239.5t322 -86 q175 0 321.5 86t232 239.5t85.5 342.5t-85.5 343.5t-232 241.5t-321.5 87q-176 0 -322 -87t-230.5 -241.5t-84.5 -343.5zM586 1649q0 40 24 65t62 25q40 0 65 -25t25 -65q0 -38 -25 -62t-65 -24q-38 0 -62 24t-24 62zM879 1649q0 39 24.5 64.5t61.5 25.5q40 0 66 -25t26 -65 q0 -38 -26 -62t-66 -24q-37 0 -61.5 24t-24.5 62z" />
<glyph unicode="&#xd7;" horiz-adv-x="903" d="M143 942l66 66l250 -248l250 248l51 -54l-248 -247l248 -248l-66 -68l-250 250l-245 -248l-54 51l246 250z" />
<glyph unicode="&#xd8;" horiz-adv-x="1640" d="M82 717q0 211 96 382.5t265 269t376 97.5q180 0 344 -82l129 232l76 -35l-133 -238q151 -102 237.5 -265.5t86.5 -360.5q0 -157 -57 -296t-155.5 -237.5t-236 -155.5t-291.5 -57q-162 0 -309 64l-154 -279l-71 45l151 273q-164 97 -259 265.5t-95 377.5zM182 717 q0 -184 79 -333t216 -237l645 1164q-143 78 -303 78q-176 0 -322 -87t-230.5 -241.5t-84.5 -343.5zM551 106q123 -57 268 -57q175 0 321.5 86t232 239.5t85.5 342.5q0 170 -71 314t-195 235z" />
<glyph unicode="&#xd9;" horiz-adv-x="1325" d="M184 492v946h95v-942q0 -121 43 -221.5t132 -164t208 -63.5q120 0 209 63.5t132.5 164.5t43.5 221v942h94v-946q0 -78 -17 -151t-55 -141t-93 -118.5t-136.5 -80.5t-180.5 -30q-122 0 -216 45.5t-149 121.5t-82.5 166t-27.5 188zM465 1751v21h141l111 -242h-45z" />
<glyph unicode="&#xda;" horiz-adv-x="1325" d="M184 492v946h95v-942q0 -121 43 -221.5t132 -164t208 -63.5q120 0 209 63.5t132.5 164.5t43.5 221v942h94v-946q0 -78 -17 -151t-55 -141t-93 -118.5t-136.5 -80.5t-180.5 -30q-122 0 -216 45.5t-149 121.5t-82.5 166t-27.5 188zM602 1530l111 242h141v-21l-207 -221h-45 z" />
<glyph unicode="&#xdb;" horiz-adv-x="1325" d="M184 492v946h95v-942q0 -121 43 -221.5t132 -164t208 -63.5q120 0 209 63.5t132.5 164.5t43.5 221v942h94v-946q0 -78 -17 -151t-55 -141t-93 -118.5t-136.5 -80.5t-180.5 -30q-122 0 -216 45.5t-149 121.5t-82.5 166t-27.5 188zM449 1530l159 242h107l159 -242h-55 l-157 139l-158 -139h-55z" />
<glyph unicode="&#xdc;" horiz-adv-x="1325" d="M184 492v946h95v-942q0 -121 43 -221.5t132 -164t208 -63.5q120 0 209 63.5t132.5 164.5t43.5 221v942h94v-946q0 -78 -17 -151t-55 -141t-93 -118.5t-136.5 -80.5t-180.5 -30q-122 0 -216 45.5t-149 121.5t-82.5 166t-27.5 188zM424 1649q0 40 24 65t62 25q40 0 65 -25 t25 -65q0 -38 -25 -62t-65 -24q-38 0 -62 24t-24 62zM717 1649q0 39 24.5 64.5t61.5 25.5q40 0 66 -25t26 -65q0 -38 -26 -62t-66 -24q-37 0 -61.5 24t-24.5 62z" />
<glyph unicode="&#xdd;" horiz-adv-x="1126" d="M51 1438h111l403 -598l410 598h100l-469 -684v-754h-94v754zM498 1530l110 242h142v-21l-207 -221h-45z" />
<glyph unicode="&#xde;" horiz-adv-x="1046" d="M184 0v1438h95v-230q307 42 496.5 -92t189.5 -385q0 -167 -87 -288t-243 -174.5t-354 -26.5v-242h-97zM281 319q134 -21 247 2.5t186.5 82t114.5 143.5t41 184q0 98 -41 181.5t-117.5 140t-185.5 79t-245 -1.5v-811z" />
<glyph unicode="&#xdf;" horiz-adv-x="931" d="M133 0v1190q0 125 72.5 198.5t193.5 73.5q115 0 194 -71t79 -193l-215 -403q111 3 203.5 -47.5t146 -143.5t53.5 -207q0 -94 -30.5 -172.5t-82.5 -129t-121.5 -83t-148.5 -35.5t-162 15l17 71q120 -33 222 -1t162 120.5t60 214.5q0 88 -35 159t-93 111t-134 55.5 t-158 -7.5l-18 22l248 469q0 83 -54.5 133t-132.5 50q-75 0 -128.5 -52t-53.5 -149v-1188h-84z" />
<glyph unicode="&#xe0;" d="M61 244q0 115 91.5 197.5t248.5 82.5q86 0 181 -42t129 -85v70q-1 41 -8 79t-26 77t-48 67t-76.5 46t-108.5 18q-129 0 -235 -90l-47 51q35 47 120.5 81.5t163.5 32.5q72 -1 131.5 -20.5t107.5 -60.5t77 -111.5t35 -165.5l-2 -471h-50l-26 139q-21 -33 -44 -58t-60 -51 t-92 -40.5t-124 -14.5q-80 0 -146 24.5t-107 63.5t-63 86t-22 95zM147 248q0 -86 74 -146.5t178 -60.5q130 0 221 78.5t91 191.5v8q-50 56 -133 95.5t-179 38.5q-116 0 -184 -60.5t-68 -144.5zM276 1163v21h142l110 -242h-45z" />
<glyph unicode="&#xe1;" d="M61 244q0 115 91.5 197.5t248.5 82.5q86 0 181 -42t129 -85v70q-1 41 -8 79t-26 77t-48 67t-76.5 46t-108.5 18q-129 0 -235 -90l-47 51q35 47 120.5 81.5t163.5 32.5q72 -1 131.5 -20.5t107.5 -60.5t77 -111.5t35 -165.5l-2 -471h-50l-26 139q-21 -33 -44 -58t-60 -51 t-92 -40.5t-124 -14.5q-80 0 -146 24.5t-107 63.5t-63 86t-22 95zM147 248q0 -86 74 -146.5t178 -60.5q130 0 221 78.5t91 191.5v8q-50 56 -133 95.5t-179 38.5q-116 0 -184 -60.5t-68 -144.5zM373 942l110 242h142v-21l-207 -221h-45z" />
<glyph unicode="&#xe2;" d="M61 244q0 115 91.5 197.5t248.5 82.5q86 0 181 -42t129 -85v70q-1 41 -8 79t-26 77t-48 67t-76.5 46t-108.5 18q-129 0 -235 -90l-47 51q35 47 120.5 81.5t163.5 32.5q72 -1 131.5 -20.5t107.5 -60.5t77 -111.5t35 -165.5l-2 -471h-50l-26 139q-21 -33 -44 -58t-60 -51 t-92 -40.5t-124 -14.5q-80 0 -146 24.5t-107 63.5t-63 86t-22 95zM147 248q0 -86 74 -146.5t178 -60.5q130 0 221 78.5t91 191.5v8q-50 56 -133 95.5t-179 38.5q-116 0 -184 -60.5t-68 -144.5zM252 942l160 242h106l160 -242h-55l-158 139l-158 -139h-55z" />
<glyph unicode="&#xe3;" d="M61 244q0 115 91.5 197.5t248.5 82.5q86 0 181 -42t129 -85v70q-1 41 -8 79t-26 77t-48 67t-76.5 46t-108.5 18q-129 0 -235 -90l-47 51q35 47 120.5 81.5t163.5 32.5q72 -1 131.5 -20.5t107.5 -60.5t77 -111.5t35 -165.5l-2 -471h-50l-26 139q-21 -33 -44 -58t-60 -51 t-92 -40.5t-124 -14.5q-80 0 -146 24.5t-107 63.5t-63 86t-22 95zM147 248q0 -86 74 -146.5t178 -60.5q130 0 221 78.5t91 191.5v8q-50 56 -133 95.5t-179 38.5q-116 0 -184 -60.5t-68 -144.5zM211 1010q14 57 50.5 90t92.5 33q38 0 107 -29t96 -29q33 0 51 10.5t37 38.5 l55 -26q-14 -57 -50.5 -90t-92.5 -33q-38 0 -107 28.5t-96 28.5q-35 0 -52.5 -9.5t-35.5 -41.5z" />
<glyph unicode="&#xe4;" d="M61 244q0 115 91.5 197.5t248.5 82.5q86 0 181 -42t129 -85v70q-1 41 -8 79t-26 77t-48 67t-76.5 46t-108.5 18q-129 0 -235 -90l-47 51q35 47 120.5 81.5t163.5 32.5q72 -1 131.5 -20.5t107.5 -60.5t77 -111.5t35 -165.5l-2 -471h-50l-26 139q-21 -33 -44 -58t-60 -51 t-92 -40.5t-124 -14.5q-80 0 -146 24.5t-107 63.5t-63 86t-22 95zM147 248q0 -86 74 -146.5t178 -60.5q130 0 221 78.5t91 191.5v8q-50 56 -133 95.5t-179 38.5q-116 0 -184 -60.5t-68 -144.5zM219 1061q0 40 24 65t62 25q40 0 65 -25t25 -65q0 -38 -25 -62t-65 -24 q-38 0 -62 24t-24 62zM512 1061q0 39 24.5 64.5t61.5 25.5q40 0 66 -25t26 -65q0 -38 -26 -62t-66 -24q-37 0 -61.5 24t-24.5 62z" />
<glyph unicode="&#xe5;" d="M72 219q0 108 84 179t241 71q153 0 314 -72v49q-1 51 -17.5 103t-49 100t-91 78.5t-133.5 30.5q-63 0 -136.5 -19.5t-115.5 -44.5l-31 72q60 36 162 55q-68 65 -68 164q0 93 63.5 156t158.5 63t158 -63t63 -156q0 -116 -92 -182q198 -79 215 -352l-2 -451h-50l-26 139 q-99 -164 -340 -164q-77 0 -137.5 21.5t-96.5 57.5t-54.5 78t-18.5 87zM158 223q0 -83 68.5 -132.5t162.5 -49.5q131 0 226.5 79t95.5 191v8q-155 76 -320 74q-115 0 -174 -48t-59 -122zM307 985q0 -63 41.5 -107t104.5 -44t104 44t41 107t-40.5 105.5t-104.5 42.5t-105 -43 t-41 -105z" />
<glyph unicode="&#xe6;" horiz-adv-x="1566" d="M61 244q0 115 91.5 197.5t248.5 82.5q86 0 181 -42t129 -85v70q-1 53 -13.5 100t-41 92t-83 72t-129.5 27q-129 0 -235 -90l-47 51q35 47 120.5 81.5t163.5 33.5q113 -2 196.5 -52.5t123.5 -156.5q49 98 141 152t207 54q150 0 259.5 -103t115.5 -290h-688 q-6 -121 47 -212.5t138.5 -136t187.5 -44.5q149 0 282 82l39 -61q-124 -91 -328 -91q-135 0 -240.5 58.5t-160.5 159.5v2q-106 -220 -367 -220q-80 0 -146 24.5t-107 63.5t-63 86t-22 95zM147 248q0 -86 74 -146.5t178 -60.5q130 0 221 78.5t91 191.5v8q-50 56 -133 95.5 t-179 38.5q-116 0 -184 -60.5t-68 -144.5zM817 512h574q-10 111 -88.5 180.5t-188.5 69.5q-64 0 -120 -25.5t-92 -64t-58 -80.5t-27 -80z" />
<glyph unicode="&#xe7;" d="M72 403q0 193 115 313t309 120q92 0 177 -37t148 -105l-57 -63q-113 135 -272 135q-148 0 -242 -105.5t-94 -257.5q0 -150 98 -256t252 -106q81 0 162 36.5t125 82.5l55 -56q-108 -108 -270 -127q40 -50 40 -116q0 -52 -19.5 -94.5t-53 -68.5t-75.5 -39.5t-88.5 -11 t-90.5 20.5l10 70q35 -17 76 -17.5t76 13.5t58.5 47.5t23.5 79.5q0 64 -46 110q-186 6 -301.5 125.5t-115.5 306.5z" />
<glyph unicode="&#xe8;" horiz-adv-x="923" d="M72 408q0 188 115 305.5t284 117.5q150 0 259.5 -103t115.5 -290h-688q-4 -91 25 -167t82 -124.5t121.5 -75t143.5 -26.5q150 0 283 82l39 -61q-124 -91 -328 -91q-199 0 -325.5 121t-126.5 312zM174 512h574q-10 111 -88.5 180.5t-188.5 69.5q-64 0 -120 -25.5t-92 -64 t-58 -80.5t-27 -80zM299 1163v21h141l111 -242h-45z" />
<glyph unicode="&#xe9;" horiz-adv-x="923" d="M72 408q0 188 115 305.5t284 117.5q150 0 259.5 -103t115.5 -290h-688q-4 -91 25 -167t82 -124.5t121.5 -75t143.5 -26.5q150 0 283 82l39 -61q-124 -91 -328 -91q-199 0 -325.5 121t-126.5 312zM174 512h574q-10 111 -88.5 180.5t-188.5 69.5q-64 0 -120 -25.5t-92 -64 t-58 -80.5t-27 -80zM375 942l110 242h142v-21l-207 -221h-45z" />
<glyph unicode="&#xea;" horiz-adv-x="923" d="M72 408q0 188 115 305.5t284 117.5q150 0 259.5 -103t115.5 -290h-688q-4 -91 25 -167t82 -124.5t121.5 -75t143.5 -26.5q150 0 283 82l39 -61q-124 -91 -328 -91q-199 0 -325.5 121t-126.5 312zM174 512h574q-10 111 -88.5 180.5t-188.5 69.5q-64 0 -120 -25.5t-92 -64 t-58 -80.5t-27 -80zM256 942l160 242h106l160 -242h-55l-158 139l-158 -139h-55z" />
<glyph unicode="&#xeb;" horiz-adv-x="923" d="M72 408q0 188 115 305.5t284 117.5q150 0 259.5 -103t115.5 -290h-688q-4 -91 25 -167t82 -124.5t121.5 -75t143.5 -26.5q150 0 283 82l39 -61q-124 -91 -328 -91q-199 0 -325.5 121t-126.5 312zM174 512h574q-10 111 -88.5 180.5t-188.5 69.5q-64 0 -120 -25.5t-92 -64 t-58 -80.5t-27 -80zM244 1061q0 40 24 65t62 25q40 0 65 -25t25 -65q0 -38 -25 -62t-65 -24q-38 0 -62 24t-24 62zM537 1061q0 39 24.5 64.5t61.5 25.5q40 0 66 -25t26 -65q0 -38 -26 -62t-66 -24q-37 0 -61.5 24t-24.5 62z" />
<glyph unicode="&#xec;" horiz-adv-x="419" d="M0 1163v21h141l111 -242h-45zM168 0v807h84v-807h-84z" />
<glyph unicode="&#xed;" horiz-adv-x="419" d="M168 0v807h84v-807h-84zM168 942l111 242h141v-21l-207 -221h-45z" />
<glyph unicode="&#xee;" horiz-adv-x="419" d="M-2 942l160 242h106l160 -242h-55l-158 139l-158 -139h-55zM168 0v807h84v-807h-84z" />
<glyph unicode="&#xef;" horiz-adv-x="419" d="M-27 1061q0 40 24 65t62 25q40 0 65.5 -25t25.5 -65q0 -38 -25.5 -62t-65.5 -24q-38 0 -62 24t-24 62zM168 0v807h84v-807h-84zM266 1061q0 39 24.5 64.5t61.5 25.5q40 0 66 -25t26 -65q0 -38 -26 -62t-66 -24q-37 0 -61.5 24t-24.5 62z" />
<glyph unicode="&#xf0;" horiz-adv-x="1009" d="M72 397q0 191 116 312.5t301 121.5q67 0 134 -19t133 -69.5t100 -124.5q-56 374 -283 588l-120 -157l-60 45l123 161q-147 114 -328 142l-14 14l21 55q196 -26 366 -151l117 151l59 -47l-116 -153q145 -132 231 -339.5t86 -488.5q-1 -106 -37 -194.5t-95.5 -146.5 t-137 -90t-162.5 -32q-185 0 -309.5 117.5t-124.5 304.5zM156 397q0 -147 101.5 -248.5t244.5 -101.5q137 0 238.5 101t101.5 247q0 152 -97 259.5t-251 107.5q-156 0 -247 -105t-91 -260z" />
<glyph unicode="&#xf1;" horiz-adv-x="976" d="M133 0v807h47l37 -135q46 71 128 115t169 44q159 0 259.5 -101.5t100.5 -262.5v-467h-86v467q0 74 -25 132t-67 91.5t-89.5 50.5t-98.5 17q-34 0 -72 -10t-77.5 -33t-70.5 -55.5t-51 -83t-20 -109.5v-467h-84zM264 1010q14 57 51 90t93 33q38 0 106.5 -29t95.5 -29 q33 0 51 10.5t37 38.5l56 -26q-14 -57 -51 -90t-93 -33q-38 0 -106.5 28.5t-95.5 28.5q-35 0 -53 -10t-36 -41z" />
<glyph unicode="&#xf2;" horiz-adv-x="989" d="M72 406q0 131 60.5 229.5t155.5 147t208 48.5q112 0 206.5 -48.5t155 -147t60.5 -229.5t-60.5 -231t-156.5 -150t-209 -50q-110 0 -204.5 50t-155 150t-60.5 231zM156 406q0 -153 99 -257t241 -104q144 0 239.5 103.5t95.5 257.5q0 155 -98 255.5t-241 100.5 q-145 0 -240.5 -100.5t-95.5 -255.5zM295 1163v21h141l111 -242h-45z" />
<glyph unicode="&#xf3;" horiz-adv-x="989" d="M72 406q0 131 60.5 229.5t155.5 147t208 48.5q112 0 206.5 -48.5t155 -147t60.5 -229.5t-60.5 -231t-156.5 -150t-209 -50q-110 0 -204.5 50t-155 150t-60.5 231zM156 406q0 -153 99 -257t241 -104q144 0 239.5 103.5t95.5 257.5q0 155 -98 255.5t-241 100.5 q-145 0 -240.5 -100.5t-95.5 -255.5zM432 942l111 242h141v-21l-207 -221h-45z" />
<glyph unicode="&#xf4;" horiz-adv-x="989" d="M72 406q0 131 60.5 229.5t155.5 147t208 48.5q112 0 206.5 -48.5t155 -147t60.5 -229.5t-60.5 -231t-156.5 -150t-209 -50q-110 0 -204.5 50t-155 150t-60.5 231zM156 406q0 -153 99 -257t241 -104q144 0 239.5 103.5t95.5 257.5q0 155 -98 255.5t-241 100.5 q-145 0 -240.5 -100.5t-95.5 -255.5zM281 942l159 242h107l160 -242h-56l-157 139l-158 -139h-55z" />
<glyph unicode="&#xf5;" horiz-adv-x="989" d="M72 406q0 131 60.5 229.5t155.5 147t208 48.5q112 0 206.5 -48.5t155 -147t60.5 -229.5t-60.5 -231t-156.5 -150t-209 -50q-110 0 -204.5 50t-155 150t-60.5 231zM156 406q0 -153 99 -257t241 -104q144 0 239.5 103.5t95.5 257.5q0 155 -98 255.5t-241 100.5 q-145 0 -240.5 -100.5t-95.5 -255.5zM248 1010q14 57 50.5 90t92.5 33q38 0 107 -29t96 -29q33 0 51 10.5t37 38.5l55 -26q-14 -57 -50.5 -90t-92.5 -33q-38 0 -107 28.5t-96 28.5q-35 0 -52.5 -9.5t-35.5 -41.5z" />
<glyph unicode="&#xf6;" horiz-adv-x="989" d="M72 406q0 131 60.5 229.5t155.5 147t208 48.5q112 0 206.5 -48.5t155 -147t60.5 -229.5t-60.5 -231t-156.5 -150t-209 -50q-110 0 -204.5 50t-155 150t-60.5 231zM156 406q0 -153 99 -257t241 -104q144 0 239.5 103.5t95.5 257.5q0 155 -98 255.5t-241 100.5 q-145 0 -240.5 -100.5t-95.5 -255.5zM260 1061q0 40 24 65t62 25q40 0 65 -25t25 -65q0 -38 -25 -62t-65 -24q-38 0 -62 24t-24 62zM553 1061q0 39 24.5 64.5t61.5 25.5q40 0 66 -25t26 -65q0 -38 -26 -62t-66 -24q-37 0 -61.5 24t-24.5 62z" />
<glyph unicode="&#xf7;" horiz-adv-x="923" d="M102 657h719v76h-719v-76zM352 399q0 49 30 80t77 31q48 0 79 -31t31 -80q0 -47 -31 -76.5t-79 -29.5q-47 0 -77 29.5t-30 76.5zM352 1008q0 49 30 79.5t77 30.5q48 0 79 -30.5t31 -79.5q0 -47 -31 -77t-79 -30q-47 0 -77 30t-30 77z" />
<glyph unicode="&#xf8;" horiz-adv-x="989" d="M72 406q0 131 60.5 229.5t155.5 147t208 48.5q94 0 172 -34l100 180l76 -37l-103 -182q82 -57 129.5 -146t47.5 -206q0 -131 -60.5 -231t-156.5 -150t-209 -50q-92 0 -173 35l-118 -213l-72 45l117 207q-80 56 -127 148t-47 209zM156 406q0 -87 34.5 -161.5t94.5 -125.5 l346 612q-67 31 -139 31q-145 0 -240.5 -100.5t-95.5 -255.5zM356 76q67 -31 140 -31q144 0 239.5 103.5t95.5 257.5q0 87 -34.5 160t-94.5 122z" />
<glyph unicode="&#xf9;" horiz-adv-x="997" d="M123 340v467h86v-467q0 -74 25 -132t67 -91.5t89.5 -50.5t98.5 -17q34 0 72 10t77.5 33t70.5 55.5t51 83t20 109.5v467h84v-807h-47l-37 135q-46 -71 -128 -115.5t-169 -44.5q-158 0 -259 102t-101 263zM305 1163v21h141l111 -242h-45z" />
<glyph unicode="&#xfa;" horiz-adv-x="997" d="M123 340v467h86v-467q0 -74 25 -132t67 -91.5t89.5 -50.5t98.5 -17q34 0 72 10t77.5 33t70.5 55.5t51 83t20 109.5v467h84v-807h-47l-37 135q-46 -71 -128 -115.5t-169 -44.5q-158 0 -259 102t-101 263zM442 942l111 242h141v-21l-207 -221h-45z" />
<glyph unicode="&#xfb;" horiz-adv-x="997" d="M123 340v467h86v-467q0 -74 25 -132t67 -91.5t89.5 -50.5t98.5 -17q34 0 72 10t77.5 33t70.5 55.5t51 83t20 109.5v467h84v-807h-47l-37 135q-46 -71 -128 -115.5t-169 -44.5q-158 0 -259 102t-101 263zM283 942l159 242h107l160 -242h-56l-157 139l-158 -139h-55z" />
<glyph unicode="&#xfc;" horiz-adv-x="997" d="M123 340v467h86v-467q0 -74 25 -132t67 -91.5t89.5 -50.5t98.5 -17q34 0 72 10t77.5 33t70.5 55.5t51 83t20 109.5v467h84v-807h-47l-37 135q-46 -71 -128 -115.5t-169 -44.5q-158 0 -259 102t-101 263zM250 1061q0 40 24 65t62 25q40 0 65 -25t25 -65q0 -38 -25 -62 t-65 -24q-38 0 -62 24t-24 62zM543 1061q0 39 24.5 64.5t61.5 25.5q40 0 66 -25t26 -65q0 -38 -26 -62t-66 -24q-37 0 -61.5 24t-24.5 62z" />
<glyph unicode="&#xfd;" horiz-adv-x="901" d="M51 807h94l304 -657l311 657h90l-639 -1327h-84l-12 20l280 551zM406 942l110 242h141v-21l-206 -221h-45z" />
<glyph unicode="&#xfe;" horiz-adv-x="1050" d="M133 -524v1962l76 24h8v-817q44 83 140 134.5t202 51.5q182 0 301 -119.5t119 -308.5t-119.5 -308.5t-302.5 -119.5q-104 0 -200 52.5t-140 136.5v-662l-76 -26h-8zM217 395q0 -149 97.5 -249.5t244.5 -100.5q149 0 242.5 104t93.5 254q0 151 -96 255t-242 104 q-148 0 -241.5 -94.5t-98.5 -239.5v-33z" />
<glyph unicode="&#xff;" horiz-adv-x="901" d="M51 807h94l304 -657l311 657h90l-639 -1327h-84l-12 20l280 551zM215 1061q0 40 24 65t62 25q40 0 65 -25t25 -65q0 -38 -25 -62t-65 -24q-38 0 -62 24t-24 62zM508 1061q0 39 24.5 64.5t61.5 25.5q40 0 66 -25t26 -65q0 -38 -26 -62t-66 -24q-37 0 -61.5 24t-24.5 62z " />
<glyph unicode="&#x152;" horiz-adv-x="1918" d="M82 713q0 53 8.5 108.5t27 119t49.5 122.5t75.5 118.5t104.5 106.5t137.5 86.5t173.5 59t213.5 23.5t256.5 -19h631v-76h-631v-490h508v-75h-508v-721h668v-76h-668q-138 -24 -254.5 -19.5t-212 24t-173 59t-138 86.5t-105.5 106t-76 117.5t-50.5 120.5t-28 115.5 t-8.5 103.5zM184 713q0 -212 116.5 -371t311 -230t422.5 -38v1284q-165 25 -299.5 1t-237.5 -85t-172.5 -149.5t-105 -194t-35.5 -217.5z" />
<glyph unicode="&#x153;" horiz-adv-x="1691" d="M72 406q0 99 35 181t94 135.5t135.5 82.5t159.5 29q122 0 222.5 -61t153.5 -163q50 105 142.5 165.5t210.5 60.5q96 0 180.5 -44.5t141 -136t59.5 -213.5h-686q-7 -90 20 -166t79.5 -127t125 -79.5t155.5 -28.5q141 0 281 88l39 -63q-136 -95 -326 -95 q-145 0 -252.5 61.5t-164.5 176.5q-52 -107 -155.5 -171.5t-229.5 -64.5q-110 0 -205 50.5t-155 151t-60 231.5zM156 406q0 -153 99 -257t241 -104q144 0 239.5 103.5t95.5 257.5q0 155 -98 256.5t-241 101.5q-145 0 -240.5 -101.5t-95.5 -256.5zM934 516h575 q-14 105 -94.5 177.5t-189.5 72.5q-52 0 -98 -17t-78.5 -44t-57.5 -61t-39 -66.5t-18 -61.5z" />
<glyph unicode="&#x178;" horiz-adv-x="1126" d="M51 1438h111l403 -598l410 598h100l-469 -684v-754h-94v754zM326 1649q0 40 24 65t62 25q40 0 65 -25t25 -65q0 -38 -25 -62t-65 -24q-38 0 -62 24t-24 62zM618 1649q0 39 25 64.5t62 25.5q40 0 66 -25t26 -65q0 -38 -26 -62t-66 -24q-37 0 -62 24t-25 62z" />
<glyph unicode="&#x2c6;" horiz-adv-x="548" d="M61 942l160 242h107l159 -242h-55l-158 139l-157 -139h-56z" />
<glyph unicode="&#x2dc;" horiz-adv-x="612" d="M61 1010q14 57 51 90t93 33q38 0 107 -29t96 -29q33 0 51 10.5t37 38.5l55 -26q-14 -57 -50.5 -90t-92.5 -33q-38 0 -107 28.5t-96 28.5q-35 0 -52.5 -9.5t-35.5 -41.5z" />
<glyph unicode="&#x2000;" horiz-adv-x="896" />
<glyph unicode="&#x2001;" horiz-adv-x="1792" />
<glyph unicode="&#x2002;" horiz-adv-x="896" />
<glyph unicode="&#x2003;" horiz-adv-x="1792" />
<glyph unicode="&#x2004;" horiz-adv-x="597" />
<glyph unicode="&#x2005;" horiz-adv-x="448" />
<glyph unicode="&#x2006;" horiz-adv-x="298" />
<glyph unicode="&#x2007;" horiz-adv-x="298" />
<glyph unicode="&#x2008;" horiz-adv-x="224" />
<glyph unicode="&#x2009;" horiz-adv-x="358" />
<glyph unicode="&#x200a;" horiz-adv-x="99" />
<glyph unicode="&#x2010;" horiz-adv-x="665" d="M102 434v86l461 60v-86z" />
<glyph unicode="&#x2011;" horiz-adv-x="665" d="M102 434v86l461 60v-86z" />
<glyph unicode="&#x2012;" horiz-adv-x="665" d="M102 434v86l461 60v-86z" />
<glyph unicode="&#x2013;" horiz-adv-x="923" d="M102 469v76h719v-76h-719z" />
<glyph unicode="&#x2014;" horiz-adv-x="1486" d="M102 469v76h1282v-76h-1282z" />
<glyph unicode="&#x2018;" horiz-adv-x="442" d="M72 997l194 465l43 -10l-73 -475h-160z" />
<glyph unicode="&#x2019;" horiz-adv-x="442" d="M113 967l73 475h160l4 -21l-194 -465z" />
<glyph unicode="&#x201a;" horiz-adv-x="442" d="M92 -293l74 475h160l4 -20l-195 -465z" />
<glyph unicode="&#x201c;" horiz-adv-x="714" d="M72 997l194 465l43 -10l-73 -475h-160zM344 997l195 465l43 -10l-74 -475h-160z" />
<glyph unicode="&#x201d;" horiz-adv-x="714" d="M113 967l73 475h160l4 -21l-194 -465zM385 967l74 475h159l5 -21l-195 -465z" />
<glyph unicode="&#x201e;" horiz-adv-x="714" d="M92 -293l74 475h160l4 -20l-195 -465zM365 -293l73 475h160l4 -20l-194 -465z" />
<glyph unicode="&#x2022;" horiz-adv-x="604" d="M164 508q0 58 39.5 98.5t97.5 40.5q57 0 98 -41t41 -98q0 -58 -40.5 -97.5t-98.5 -39.5q-59 0 -98 39.5t-39 97.5z" />
<glyph unicode="&#x2026;" horiz-adv-x="1302" d="M113 82q0 46 29 76t73 30q45 0 76 -30.5t31 -75.5q0 -44 -31 -73t-76 -29q-44 0 -73 29t-29 73zM545 82q0 46 29 76t73 30q45 0 76 -30.5t31 -75.5q0 -44 -31 -73t-76 -29q-44 0 -73 29t-29 73zM981 82q0 46 29 76t73 30q45 0 76 -30.5t31 -75.5q0 -44 -31 -73t-76 -29 q-44 0 -73 29t-29 73z" />
<glyph unicode="&#x202f;" horiz-adv-x="358" />
<glyph unicode="&#x2039;" horiz-adv-x="677" d="M72 387v12l417 437l56 -54l-361 -385l361 -377l-60 -57z" />
<glyph unicode="&#x203a;" horiz-adv-x="677" d="M133 16l361 385l-361 377l60 58l413 -424v-13l-418 -436z" />
<glyph unicode="&#x205f;" horiz-adv-x="448" />
<glyph unicode="&#x20ac;" horiz-adv-x="1431" d="M0 487v11l10 63h178q-8 74 -8 103q0 28 8 102h-147v10l10 66h154q34 153 132 272.5t235 183.5t290 64q152 0 267.5 -48.5t220.5 -131.5l-56 -68q-100 83 -198.5 128.5t-223.5 45.5q-214 0 -369 -126.5t-202 -319.5h735v-11l-10 -65h-739q-8 -74 -8 -102q0 -41 10 -103 h706v-10l-10 -64h-684q46 -187 207.5 -313.5t363.5 -126.5q135 0 242.5 39.5t202.5 122.5l53 -59q-103 -89 -215 -134t-293 -45q-232 0 -417.5 144.5t-239.5 371.5h-205z" />
<glyph unicode="&#x2122;" horiz-adv-x="1579" d="M92 1368v70h551v-70h-235v-692h-82v692h-234zM770 676v762l18 8l322 -393l338 393l18 -8v-762h-73v592l-279 -328h-14l-254 307v-571h-76z" />
<glyph unicode="&#x25fc;" horiz-adv-x="808" d="M0 0v809h809v-809h-809z" />
</font>
</defs>
</svg>
