<?xml version="1.0" standalone="no"?>
<!DOCTYPE svg PUBLIC "-//W3C//DTD SVG 1.1//EN" "http://www.w3.org/Graphics/SVG/1.1/DTD/svg11.dtd" >
<svg xmlns="http://www.w3.org/2000/svg">
<metadata>Generated by IcoMoon</metadata>
<defs>
<font id="ascribe" horiz-adv-x="1024">
<font-face units-per-em="1024" ascent="960" descent="-64" />
<missing-glyph horiz-adv-x="1024" />
<glyph unicode="&#x20;" d="" horiz-adv-x="512" />
<glyph unicode="&#xe600;" d="M3430.419 414.818c10.557 59.787 63.297 121.914 144.169 121.914 76.188 0 130.104-55.085 131.284-121.914h-275.454zM3703.523 217.904c-22.265-49.249-69.156-73.835-126.595-73.835-90.259 0-154.722 73.835-153.548 171.119h357.5c25.786 0 43.365 15.243 43.365 43.382v37.503c-3.512 133.637-101.965 243.813-248.494 243.813-166.431 0-268.422-133.637-268.422-296.555 0-174.66 97.293-305.933 269.595-305.933 112.525 0 202.777 59.777 240.293 158.255 10.557 28.124-4.699 51.575-32.817 51.575h-35.171c-19.931 0-35.171-7.041-45.724-29.308zM2802.169 453.511c26.956 38.68 73.835 77.367 133.609 77.367 90.262 0 148.872-89.077 148.872-192.232 0-107.844-53.916-191.054-148.872-191.054-59.777 0-106.66 43.365-133.609 84.393v221.523zM2800.996 96.003c38.685-33.994 84.393-58.615 135.974-58.615 162.923-1.172 262.559 130.112 263.735 302.421 1.175 171.132-98.465 300.065-262.561 300.065-52.748 0-100.805-24.617-135.957-52.752v269.595c0 23.437-18.749 42.196-43.365 42.196h-30.471c-23.451 0-41.038-18.752-41.038-42.196v-767.748c0-23.451 17.581-42.196 41.038-42.196h29.3c24.611 0 38.68 17.581 42.196 41.022l1.164 8.213zM2341.524 806.321c0-44.551 32.817-76.188 76.198-76.188 43.365 0 77.367 31.638 77.367 76.188 0 44.534-33.994 77.355-77.367 77.355-43.382 0-76.198-32.817-76.198-77.355zM2361.448 88.976c0-23.451 17.581-42.196 41.029-42.196h29.3c23.437 0 42.196 18.74 42.196 42.196v499.325c0 23.437-15.243 42.186-41.029 42.186h-30.473c-23.437 0-41.029-18.752-41.029-42.186v-499.325zM1906.665 88.976c0-23.451 18.752-42.196 42.196-42.196h30.473c26.967 0 42.196 18.74 42.196 42.196v351.627c22.275 43.382 72.679 86.742 140.659 86.742h21.096c24.611 0 43.365 17.578 43.365 42.196v31.646c0 23.437-16.405 38.68-41.029 38.68h-21.096c-53.916 0-113.7-36.336-143.003-77.355l-1.172 26.956c-2.337 23.437-16.405 41.029-41.029 41.029h-30.473c-23.437 0-42.196-18.752-42.196-42.186v-499.339zM1634.735 440.613c8.213-23.447 30.473-30.473 52.752-23.447l31.638 10.557c25.786 8.197 31.652 29.3 24.617 49.228-32.817 96.121-111.344 162.929-234.422 162.929-162.929 0-266.077-132.456-266.077-301.243 0-171.132 97.289-301.243 263.728-301.243 124.251 0 225.059 82.055 250.841 189.889 5.872 24.617-9.381 44.534-33.986 44.534h-36.336c-22.275 0-39.859-11.714-45.724-32.817-17.581-56.258-67.987-91.425-130.112-92.604-96.121-1.172-154.722 84.393-154.722 192.237 0 109.004 57.44 195.749 152.384 194.572 60.941-1.175 104.314-36.341 125.407-92.604zM774.407 223.756c-2.348 22.265-19.931 39.859-43.365 39.859h-33.986c-22.265 0-38.68-17.581-37.511-39.859 3.519-107.826 91.436-186.366 234.422-186.366 150.038 0 237.959 82.055 237.959 182.863 0 91.425-58.615 144.169-143.003 160.583-44.534 8.197-97.289 18.752-139.487 30.473-30.473 8.213-53.916 28.134-53.916 55.096 0 37.511 31.646 71.496 97.293 71.496 59.777 0 93.775-35.171 100.805-63.287 5.86-22.275 25.786-35.156 45.702-35.156h32.817c23.437 0 41.029 15.243 37.511 39.849-12.894 92.604-93.766 160.583-215.681 160.583-125.415 0-213.318-71.496-213.318-174.649 0-87.911 66.817-134.803 134.787-154.727 50.4-15.243 97.289-25.78 147.691-35.153 31.646-5.872 55.085-25.794 55.085-57.44 0-44.534-42.196-77.367-123.068-76.198-70.351 1.164-117.233 37.503-120.74 82.035zM214.113 148.76c-52.752 4.686-84.393 29.3-84.393 67.983 0 41.029 31.646 65.649 80.878 65.649 33.986 0 62.129 1.172 93.766 3.512 26.956 2.337 55.085 7.046 73.847 23.447v-89.077c-5.872-39.859-39.849-65.649-93.775-71.496-22.265-2.373-46.875-2.373-70.321-0.002zM21.881 461.713c-4.686-24.624 12.894-39.879 35.171-39.879h35.156c24.617 0 42.196 12.9 46.886 35.171 9.381 45.724 46.886 77.378 119.561 77.378 80.878 0 120.736-48.055 119.553-114.864v-5.872c-11.723-18.752-45.702-26.956-75.015-28.128s-53.916-2.337-90.259-2.337c-117.212 0-200.437-56.258-200.437-167.608 0-109.004 79.704-169.96 201.613-175.823 22.265-1.172 43.365 0 63.297 1.182 45.702 2.337 94.938 23.447 120.728 57.431 11.723-25.786 55.085-51.561 91.425-51.561h23.437c24.617 0 42.196 15.224 42.196 39.859v32.807c0 23.447-16.405 38.685-38.68 38.685-14.059 0-24.611 9.381-24.611 23.437v229.743c0 135.974-98.465 228.577-234.427 228.577-121.911-0.002-216.845-67.987-235.597-178.173zM4851.264 565.789c-10.622 43.159-26.709 84.412-47.805 122.588-21.942 39.762-48.675 76.091-79.453 107.862-31.925 33.061-67.78 61.607-106.52 84.803-40 24.044-82.757 42.616-127.187 55.228-45.724 12.914-92.556 19.84-139.319 20.556-47.828 0.536-95.718-4.954-142.256-16.723-30.518-7.809-60.001-18.334-88.374-30.899l46.869-95.934c21.847 9.438 44.466 17.416 67.828 23.386 37.322 9.438 75.719 13.936 114.379 13.426 37.411-0.574 75.036-6.154 111.788-16.524 35.285-10.024 69.36-24.843 101.361-44.060 30.773-18.424 59.234-41.095 84.691-67.465 24.26-25.062 45.373-53.738 62.764-85.247 16.571-30.002 29.218-62.477 37.6-96.556 7.992-32.382 11.668-66.22 10.935-100.602-0.677-32.585-5.811-65.486-15.226-97.679-9.1-30.845-22.317-60.585-39.312-88.364-16.258-26.587-36.268-51.209-59.475-73.187-22.159-20.998-47.247-39.117-74.573-53.855-26.135-14.109-54.348-24.751-83.935-31.692-28.025-6.601-57.208-9.445-86.919-8.518-27.994 0.904-56.223 5.642-83.797 14.036-26.236 8.024-51.546 19.627-75.209 34.483-22.393 14.075-43.234 31.422-61.854 51.469-17.499 18.909-32.58 40.406-44.857 63.891-11.606 22.217-20.287 46.184-25.843 71.317-5.257 23.594-7.334 48.171-6.168 73.124 1.078 23.311 5.404 46.844 12.878 70.080 6.762 21.2 16.977 42.612 29.575 61.931 11.865 18.239 26.871 35.673 43.416 50.496 15.638 13.996 33.541 26.118 53.072 35.943 18.128 9.061 38.365 16.002 58.544 20.051 18.866 3.811 39.477 5.152 59.454 3.855 18.38-1.215 37.784-5.18 56.072-11.457 16.677-5.744 33.638-14.316 49.088-24.791 13.925-9.438 27.387-21.583 39.032-35.26 10.544-12.282 19.895-26.852 27.122-42.232 6.595-13.982 11.555-29.778 14.343-45.885 2.533-14.208 3.104-29.952 1.665-45.437-1.296-13.765-4.74-28.395-9.847-41.971-4.833-12.635-11.644-25.115-19.703-36.105-7.416-10.141-16.707-19.765-26.932-27.858-9.009-7.138-20.142-13.734-31.224-18.447-9.907-4.181-21.617-7.334-32.772-8.835-10.078-1.279-21.369-1.182-31.898 0.303-9.217 1.296-19.206 4.152-28.104 8.048-7.692 3.378-16.045 8.547-22.961 14.243-6.065 4.985-12.153 11.595-16.798 18.276-3.927 5.617-7.561 12.839-10.085 20.138-1.919 5.52-3.299 12.759-3.662 19.565-0.289 5.129 0.325 11.924 1.503 17.191 1.027 4.403 3.267 10.035 5.76 14.491 1.687 3.035 4.833 7.048 8.168 10.279 1.815 1.802 5.335 4.298 7.925 5.642 1.654 0.866 5.448 2.18 7.491 2.599 1.175 0.224 4.235 0.235 6.005 0.049 29.266-3.529 55.746 17.633 59.118 46.913 3.354 29.294-17.643 55.755-46.929 59.129-5.787 0.661-21.038 1.898-38.136-1.231-12.577-2.506-25.92-7.121-36.713-12.704-7.183-3.732-21.159-11.92-33.465-24.145-10.408-10.058-19.898-22.334-26.651-34.48-7.322-13.077-13.194-28.047-16.619-42.725-3.455-15.436-4.877-32.145-4.035-46.886 0.628-11.797 2.793-29.851 9.423-48.728 5.671-16.479 13.777-32.482 23.363-46.169 10.209-14.683 22.86-28.387 36.545-39.636 14.545-11.967 31.106-22.183 47.94-29.575 17.867-7.802 37.249-13.317 55.976-15.951 19.955-2.86 40.879-2.992 60.739-0.442 20.857 2.793 41.774 8.445 60.612 16.417 20.029 8.547 39.34 19.987 55.826 33.061 17.581 13.957 33.757 30.718 46.709 48.426 13.579 18.529 25.087 39.625 33.377 61.32 8.504 22.612 14.131 46.739 16.324 69.897 2.337 25.321 1.376 50.22-2.818 73.847-4.391 25.224-12.32 50.463-22.909 72.861-11.351 24.212-25.714 46.503-42.529 66.106-17.931 21.043-38.211 39.32-60.306 54.269-23.419 15.893-48.391 28.459-74.233 37.373-27.534 9.462-55.724 15.2-83.897 17.065-29.692 1.862-59.149-0.007-87.458-5.744-29.72-5.982-58.363-15.807-85.298-29.284-28.065-14.109-53.799-31.572-76.416-51.819-23.777-21.268-44.534-45.424-61.685-71.778-17.973-27.578-32.042-57.080-41.774-87.58-10.335-32.102-16.351-64.989-17.871-97.736-1.597-34.378 1.302-68.441 8.593-101.185 7.572-34.236 19.496-67.058 35.447-97.623 16.649-31.865 37.223-61.117 61.181-87.016 25.020-26.956 53.062-50.255 83.374-69.299 31.634-19.859 65.52-35.393 100.833-46.204 36.619-11.137 74.109-17.374 111.475-18.616 4.873-0.156 9.745-0.224 14.596-0.224 34.086 0 67.768 3.881 100.208 11.534 38.672 9.071 75.742 23.078 110.192 41.64 35.583 19.201 68.324 42.864 97.309 70.311 30.006 28.439 55.956 60.403 77.135 94.977 21.858 35.752 38.888 74.069 50.666 113.997 12.084 41.323 18.652 83.565 19.517 125.48 0.913 43.732-3.775 86.944-14.018 128.417z" horiz-adv-x="4883" />
<glyph unicode="&#xe601;" d="M1148.442 552.359c-10.655 43.289-26.795 84.657-47.94 122.949-22 39.886-48.833 76.306-79.685 108.187-32.025 33.164-67.987 61.791-106.846 85.052-40.119 24.115-83.012 42.735-127.571 55.394-45.852 12.955-92.834 19.895-139.727 20.622-47.975 0.539-96.006-4.973-142.682-16.766-30.601-7.84-60.167-18.386-88.636-30.988l47.019-96.215c21.907 9.462 44.595 17.461 68.027 23.458 37.443 9.462 75.939 13.967 114.709 13.466 37.516-0.584 75.258-6.177 112.12-16.571 35.388-10.052 69.559-24.918 101.659-44.197 30.857-18.473 59.406-41.219 84.936-67.657 24.332-25.134 45.501-53.898 62.936-85.508 16.624-30.085 29.302-62.656 37.721-96.834 7.997-32.476 11.698-66.424 10.948-100.905-0.677-32.68-5.822-65.677-15.273-97.965-9.114-30.936-22.376-60.771-39.416-88.636-16.308-26.656-36.387-51.349-59.662-73.403-22.233-21.057-47.386-39.225-74.787-54.022-26.217-14.151-54.514-24.822-84.191-31.782-28.096-6.614-57.375-9.478-87.173-8.54-28.084 0.909-56.393 5.659-84.048 14.071-26.314 8.044-51.698 19.68-75.426 34.592-22.465 14.113-43.362 31.507-62.040 51.618-17.543 18.965-32.678 40.528-44.984 64.073-11.637 22.281-20.346 46.325-25.924 71.531-5.272 23.662-7.355 48.323-6.186 73.336 1.081 23.386 5.413 46.986 12.918 70.287 6.782 21.271 17.035 42.727 29.667 62.107 11.895 18.293 26.94 35.783 43.544 50.639 15.686 14.051 33.635 26.195 53.234 36.051 18.176 9.082 38.467 16.041 58.706 20.117 18.927 3.822 39.585 5.177 59.629 3.871 18.433-1.215 37.893-5.198 56.237-11.492 16.727-5.771 33.745-14.361 49.239-24.867 13.96-9.467 27.472-21.649 39.143-35.364 10.576-12.307 19.948-26.921 27.2-42.356 6.614-14.015 11.583-29.862 14.393-46.016 2.536-14.257 3.104-30.048 1.671-45.572-1.301-13.808-4.755-28.488-9.872-42.109-4.848-12.671-11.683-25.176-19.767-36.209-7.436-10.168-16.766-19.818-26.994-27.941-9.041-7.163-20.215-13.774-31.326-18.505-9.921-4.191-21.683-7.355-32.869-8.856-10.105-1.289-21.443-1.195-31.998 0.304-9.238 1.301-19.271 4.173-28.182 8.073-7.714 3.382-16.101 8.578-23.034 14.289-6.092 4.987-12.197 11.622-16.846 18.318-3.937 5.637-7.588 12.883-10.105 20.205-1.935 5.531-3.314 12.802-3.673 19.618-0.291 5.138 0.337 11.965 1.515 17.239 1.037 4.429 3.272 10.073 5.778 14.531 1.689 3.048 4.848 7.077 8.194 10.313 1.809 1.805 5.343 4.313 7.945 5.659 1.663 0.869 5.465 2.184 7.519 2.599 1.175 0.224 4.249 0.239 6.023 0.049 29.354-3.54 55.912 17.683 59.297 47.057 3.368 29.371-17.697 55.921-47.071 59.302-5.811 0.664-21.1 1.897-38.256-1.236-12.619-2.513-25.994-7.139-36.823-12.739-7.208-3.752-21.217-11.953-33.546-24.212-10.441-10.085-19.953-22.4-26.734-34.573-7.34-13.114-13.228-28.136-16.668-42.852-3.459-15.476-4.888-32.237-4.057-47.031 0.638-11.822 2.806-29.946 9.453-48.867 5.688-16.524 13.825-32.58 23.428-46.311 10.24-14.718 22.938-28.477 36.654-39.754 14.595-11.998 31.199-22.247 48.092-29.664 17.906-7.816 37.353-13.354 56.131-15.999 20.020-2.864 41.001-3.009 60.922-0.441 20.918 2.793 41.908 8.466 60.788 16.461 20.084 8.578 39.46 20.052 55.987 33.164 17.639 13.996 33.852 30.805 46.842 48.566 13.615 18.578 25.169 39.748 33.497 61.514 8.511 22.678 14.165 46.869 16.361 70.103 2.348 25.412 1.378 50.373-2.826 74.065-4.401 25.294-12.353 50.611-22.98 73.078-11.392 24.28-25.781 46.636-42.657 66.3-17.966 21.112-38.323 39.44-60.482 54.435-23.476 15.939-48.523 28.546-74.449 37.483-27.617 9.498-55.886 15.241-84.141 17.114-29.789 1.867-59.333-0.033-87.72-5.771-29.792-5.997-58.528-15.845-85.544-29.363-28.162-14.151-53.958-31.671-76.639-51.976-23.849-21.334-44.671-45.558-61.859-71.992-18.033-27.659-32.135-57.261-41.894-87.84-10.373-32.192-16.399-65.181-17.925-98.026-1.597-34.487 1.308-68.647 8.623-101.479 7.595-34.328 19.546-67.256 35.545-97.911 16.704-31.957 37.332-61.299 61.363-87.269 25.094-27.036 53.22-50.407 83.619-69.509 31.725-19.923 65.717-35.5 101.122-46.337 36.727-11.173 74.337-17.432 111.813-18.672 4.881-0.147 9.768-0.224 14.639-0.224 34.199 0 67.979 3.895 100.523 11.573 38.779 9.096 75.963 23.141 110.506 41.761 35.697 19.256 68.535 42.989 97.601 70.519 30.094 28.526 56.131 60.574 77.354 95.259 21.924 35.868 39.003 74.295 50.812 114.333 12.117 41.449 18.704 83.808 19.572 125.853 0.985 43.847-3.739 87.177-14 128.774z" horiz-adv-x="1453" />
<glyph unicode="&#xe602;" d="M3450.968 403.781c10.557 59.777 63.297 121.914 144.169 121.914 76.188 0 130.097-55.096 131.284-121.914h-275.454zM3724.071 206.88c-22.265-49.257-69.148-73.847-126.595-73.847-90.262 0-154.727 73.847-153.548 171.125h357.5c25.786 0 43.365 15.226 43.365 43.382v37.487c-3.519 133.624-101.965 243.811-248.511 243.811-166.431 0-268.406-133.637-268.406-296.562 0-174.66 97.293-305.933 269.588-305.933 112.529 0 202.786 59.772 240.287 158.261 10.563 28.115-4.699 51.575-32.817 51.575h-35.171c-19.917 0-35.156-7.038-45.702-29.3zM2822.714 442.468c26.967 38.68 73.835 77.367 133.609 77.367 90.262 0 148.872-89.073 148.872-192.232 0-107.844-53.907-191.041-148.872-191.041-59.777 0-106.66 43.365-133.609 84.393v221.508zM2821.545 84.964c38.685-33.986 84.393-58.615 135.974-58.615 162.923-1.172 262.559 130.104 263.741 302.421 1.175 171.14-98.465 300.065-262.561 300.065-52.752 0-100.814-24.617-135.974-52.752v269.588c0 23.437-18.749 42.196-43.365 42.196h-30.473c-23.451 0-41.029-18.752-41.029-42.196v-767.731c0-23.468 17.581-42.207 41.029-42.207h29.308c24.601 0 38.68 17.581 42.196 41.022l1.164 8.217zM2362.071 795.283c0-44.551 32.817-76.188 76.198-76.188 43.365 0 77.367 31.638 77.367 76.188 0 44.534-33.994 77.355-77.367 77.355-43.382 0-76.198-32.817-76.198-77.355zM2382.004 77.946c0-23.468 17.581-42.207 41.029-42.207h29.3c23.437 0 42.196 18.74 42.196 42.207v499.314c0 23.437-15.243 42.186-41.029 42.186h-30.473c-23.437 0-41.029-18.752-41.029-42.186l0.002-499.314zM1927.22 77.946c0-23.468 18.752-42.207 42.196-42.207h30.473c26.967 0 42.196 18.74 42.196 42.207v351.615c22.275 43.365 72.674 86.742 140.659 86.742h21.096c24.601 0 43.365 17.578 43.365 42.196v31.646c0 23.437-16.405 38.68-41.029 38.68h-21.091c-53.916 0-113.704-36.341-143.003-77.355l-1.172 26.967c-2.337 23.427-16.405 41.022-41.029 41.022h-30.473c-23.437 0-42.196-18.752-42.196-42.186v-499.325h-0.002zM1655.291 429.571c8.197-23.447 30.473-30.473 52.752-23.447l31.638 10.557c25.786 8.197 31.652 29.3 24.617 49.228-32.821 96.121-111.344 162.929-234.422 162.929-162.929 0-266.071-132.456-266.071-301.243 0-171.131 97.289-301.243 263.725-301.243 124.251 0 225.059 82.055 250.841 189.889 5.872 24.617-9.381 44.534-33.986 44.534h-36.336c-22.275 0-39.859-11.703-45.724-32.817-17.581-56.258-67.987-91.436-130.112-92.604-96.121-1.172-154.722 84.393-154.722 192.237 0 109.004 57.44 195.749 152.384 194.572 60.941-1.172 104.314-36.341 125.407-92.604zM794.961 212.724c-2.348 22.265-19.936 39.859-43.365 39.859h-33.986c-22.265 0-38.68-17.581-37.503-39.859 3.519-107.818 91.436-186.366 234.422-186.366 150.038 0 237.957 82.035 237.957 182.863 0 91.436-58.615 144.169-143.003 160.583-44.526 8.197-97.289 18.752-139.487 30.473-30.473 8.213-53.916 28.14-53.916 55.103 0 37.503 31.646 71.496 97.293 71.496 59.777 0 93.783-35.171 100.814-63.282 5.86-22.278 25.786-35.171 45.702-35.171h32.817c23.447 0 41.029 15.252 37.511 39.859-12.894 92.604-93.766 160.583-215.681 160.583-125.415 0-213.335-71.508-213.335-174.66 0-87.911 66.816-134.787 134.787-154.727 50.4-15.226 97.293-25.776 147.688-35.153 31.646-5.86 55.096-25.794 55.096-57.44 0-44.534-42.207-77.355-123.083-76.198-70.353 1.156-117.242 37.487-120.745 82.031zM234.671 137.725c-52.764 4.699-84.393 29.3-84.393 67.983 0 41.029 31.638 65.658 80.878 65.658 33.98 0 62.129 1.172 93.766 3.512 26.956 2.333 55.085 7.046 73.847 23.447v-89.077c-5.872-39.859-39.849-65.658-93.775-71.496-22.265-2.384-46.875-2.384-70.321-0.005zM42.437 450.682c-4.686-24.638 12.894-39.883 35.171-39.883h35.156c24.617 0 42.196 12.9 46.886 35.171 9.375 45.724 46.875 77.378 119.561 77.378 80.878 0 120.728-48.055 119.553-114.864v-5.86c-11.723-18.752-45.702-26.967-75.015-28.128-29.308-1.175-53.916-2.337-90.259-2.337-117.212 0-200.447-56.249-200.447-167.62 0-109.002 79.704-169.96 201.613-175.817 22.265-1.175 43.365 0 63.297 1.195 45.702 2.333 94.933 23.447 120.721 57.416 11.723-25.786 55.085-51.561 91.436-51.561h23.437c24.617 0 42.196 15.224 42.196 39.862v32.804c0 23.451-16.405 38.7-38.68 38.7-14.059 0-24.611 9.375-24.611 23.437v229.743c0 135.974-98.46 228.568-234.425 228.568-121.893-0.007-216.841-68.002-235.594-178.175zM4313.982 835.921c11.494 1.289 23.060 2.086 34.678 2.48l-3.028 106.778c-15.039-0.515-30.037-1.645-44.981-3.378l13.334-105.883zM4381.241 524.286c-2.231 0.244-5.851 0.594-10.442 0.728-7.356 0.235-17.137-0.005-27.677-1.955-12.606-2.489-25.945-7.138-36.72-12.728-7.204-3.718-21.161-11.907-33.479-24.121-10.396-10.058-19.898-22.339-26.651-34.473-4.146-7.398-7.724-15.403-10.755-23.594l102.435-31.634c0.512 1.055 0.952 2.212 1.519 3.169 1.676 3.040 4.802 7.048 8.159 10.267 1.815 1.815 5.318 4.298 7.925 5.649 1.645 0.877 5.416 2.196 7.481 2.589 0.952 0.191 3.192 0.235 4.932 0.125 0.394-0.005 0.777-0.005 1.078-0.055 29.276-3.529 55.769 17.614 59.129 46.92 3.354 29.276-17.662 55.731-46.934 59.101zM4233.705 929.501c-8.063-2.071-16.027-4.346-23.963-6.781l30.733-102.225c6.468 1.996 12.974 3.888 19.573 5.575 16.767 4.235 47.94 9.1 46.452 8.893l-13.866 105.883c1.472 0.182-38.055-6.060-58.932-11.333zM4779.092 428.369c-0.628-29.692-5.088-59.566-12.998-88.989l103.158-28.096c10.157 37.917 15.774 76.473 16.571 114.798 0.209 9.951 0.079 19.859-0.275 29.736l-106.687-3.529c0.289-7.957 0.414-15.914 0.244-23.918zM4140.875 897.932l46.869-95.96c4.185 1.833 8.445 3.541 12.696 5.244l-39.516 99.129c-6.745-2.692-13.441-5.492-20.051-8.416zM4665.084 169.106c-22.171-20.998-47.247-39.117-74.584-53.838-26.135-14.115-54.358-24.772-83.935-31.706-28.013-6.601-57.199-9.468-86.914-8.513-16.055 0.501-32.174 2.447-48.208 5.439l-19.286-104.944c21.268-3.944 42.665-6.483 64.064-7.209 4.848-0.156 9.709-0.201 14.56-0.201 34.108 0 67.792 3.888 100.208 11.518 38.66 9.079 75.751 23.101 110.209 41.643 35.597 19.183 68.336 42.859 97.309 70.293 4.452 4.235 8.647 8.709 12.955 13.095l-76.395 74.517c-3.299-3.397-6.536-6.82-9.978-10.101zM4724.548 242.298c-9.931-16.248-21.415-31.673-34.041-46.273l81.041-69.424c16.289 18.922 31.176 38.892 44.086 59.996 15.447 25.258 28.433 51.815 38.892 79.314l-99.765 38.197c-8.098-21.353-18.159-42.092-30.224-61.803zM4873.076 548.955l-104.041-24.083c2.854-12.206 5.052-24.601 6.686-37.155l105.937 14.186c-2.086 15.872-4.954 31.598-8.578 47.047zM4510.833 924.986c-11.197 3.149-22.459 5.957-33.757 8.393l-22.509-104.338c9.116-1.974 18.178-4.22 27.191-6.762 5.677-1.626 11.276-3.564 16.913-5.42l33.823 101.408c-7.183 2.373-14.387 4.651-21.658 6.732zM4392.662 944.745l-6.278-106.744c12.86-0.696 25.7-1.781 38.517-3.641l15.093 105.685c-15.725 2.283-31.506 3.833-47.32 4.699zM4824.014 677.101c-21.948 39.762-48.687 76.073-79.469 107.862-31.913 33.048-67.768 61.599-106.497 84.809-19.904 11.944-40.485 22.538-61.599 31.728l-42.463-97.944c16.817-7.344 33.231-15.782 49.135-25.349 30.788-18.418 59.234-41.095 84.702-67.438 24.24-25.062 45.362-53.749 62.756-85.26 11.324-20.476 20.653-42.217 28.213-64.718l101.134 34.449c-9.594 28.457-21.556 55.873-35.903 81.86zM4413.802 287.728c-5.744 0.818-11.763 2.289-17.662 4.173l-32.496-101.603c11.663-3.727 23.54-6.595 35.234-8.251 7.802-1.135 15.763-1.711 23.76-1.969l1.123 106.72c-3.368 0.209-6.686 0.476-9.958 0.927zM4478.496 296.276c-9.1-3.855-19.697-6.745-30.006-8.376l16.151-105.456c19.177 2.992 38.261 8.231 55.619 15.576 2.616 1.123 5.208 2.406 7.784 3.641l-44.68 96.867c-1.607-0.772-3.229-1.58-4.862-2.258zM4335.856 89.062c-26.258 8.021-51.561 19.636-75.209 34.496-22.433 14.075-43.243 31.408-61.878 51.469-4.129 4.445-8.092 9.104-11.967 13.838l-83.076-67.015c5.387-6.638 10.966-13.115 16.779-19.376 25.027-26.991 53.092-50.291 83.384-69.334 31.569-19.807 65.403-35.311 100.619-46.121l31.585 101.961c-0.071 0.064-0.156 0.079-0.244 0.092zM4362.753 310.015c-6.093 4.985-12.206 11.595-16.828 18.279-3.927 5.613-7.549 12.819-10.078 20.126-1.912 5.52-3.292 12.763-3.662 19.549-0.005 0.071 0 0.132 0 0.173l-106.66-0.952c0.043-1.687 0-3.429 0.092-5.082 0.636-11.797 2.78-29.851 9.431-48.722 5.655-16.484 13.777-32.489 23.363-46.174 10.218-14.664 22.854-28.387 36.539-39.646 4.948-4.035 10.157-7.809 15.466-11.415l59.014 88.882c-2.302 1.58-4.591 3.247-6.686 4.971zM4153.934 238.921c-11.595 22.227-20.278 46.204-25.848 71.313-5.276 23.594-7.322 48.171-6.168 73.135 1.092 23.307 5.404 46.858 12.894 70.080 6.773 21.202 16.974 42.616 29.565 61.931 1.645 2.533 3.495 4.985 5.244 7.471l-86.809 62.026c-2.653-3.732-5.393-7.416-7.874-11.252-17.964-27.556-32.026-57.106-41.753-87.578-10.335-32.102-16.367-64.989-17.876-97.736-1.597-34.399 1.302-68.441 8.588-101.188 7.587-34.244 19.477-67.052 35.438-97.657 4.816-9.184 10.007-18.041 15.466-26.78l90.393 56.672c-3.944 6.376-7.742 12.848-11.243 19.571zM4207.794 565.869c15.638 13.996 33.544 26.118 53.082 35.953 5.677 2.822 11.613 5.366 17.633 7.771l-39.502 99.129c-8.835-3.504-17.525-7.259-25.98-11.494-28.061-14.109-53.808-31.581-76.419-51.815-12.628-11.312-24.362-23.491-35.209-36.317l81.374-69.088c7.798 9.171 16.16 17.92 25.027 25.865zM4477.587 593.539l57.416 89.924c-14.806 9.361-30.115 17.581-45.878 24.274l-41.689-98.3c10.26-4.353 20.414-9.788 30.142-15.896zM4523.054 554.207c10.557-12.287 19.898-26.871 27.119-42.235 6.587-13.957 11.563-29.792 14.369-45.885 2.528-14.208 3.080-29.946 1.633-45.457-1.289-13.741-4.722-28.38-9.843-41.948-4.833-12.628-11.644-25.121-19.697-36.105-7.428-10.157-16.723-19.771-26.946-27.883-0.092-0.055-0.182-0.139-0.285-0.182l65.675-84.121c0.325 0.213 0.661 0.476 0.972 0.701 17.581 13.954 33.757 30.707 46.706 48.434 13.579 18.512 25.093 39.612 33.389 61.317 8.479 22.612 14.131 46.727 16.315 69.897 2.337 25.321 1.393 50.22-2.818 73.847-4.391 25.224-12.341 50.485-22.909 72.88-11.351 24.204-25.711 46.492-42.553 66.103-8.776 10.344-18.169 19.982-28.043 28.899l-71.697-79.104c6.556-5.913 12.796-12.348 18.601-19.148zM4311.646 620.035l-23.936 103.982c3.529 0.818 7.041 1.777 10.618 2.48 28.313 5.736 57.785 7.62 87.431 5.74 18.118-1.182 36.164-4.152 54.092-8.497l-24.819-103.793c-12.121 2.953-24.327 4.971-36.164 5.768-19.985 1.302-40.575-0.043-59.464-3.855-2.583-0.515-5.192-1.223-7.764-1.833z" horiz-adv-x="4909" />
<glyph unicode="&#xe603;" d="M355.213 859.301c12.036 1.346 24.129 2.174 36.265 2.592l-3.159 111.654c-15.726-0.547-31.413-1.727-47.041-3.524l13.939-110.723zM425.554 533.398c-2.331 0.261-6.129 0.627-10.921 0.768-7.688 0.243-17.939-0.007-28.943-2.046-13.17-2.61-27.11-7.463-38.399-13.303-7.529-3.907-22.127-12.463-35.004-25.24-10.88-10.52-20.798-23.361-27.868-36.053-4.325-7.712-8.079-16.084-11.239-24.653l107.141-33.085c0.518 1.115 0.982 2.313 1.56 3.315 1.759 3.177 5.038 7.384 8.543 10.739 1.906 1.875 5.568 4.482 8.287 5.906 1.746 0.913 5.688 2.282 7.831 2.709 1.013 0.201 3.339 0.243 5.154 0.129 0.41-0.010 0.808-0.010 1.133-0.065 30.6-3.679 58.303 18.423 61.83 49.066 3.492 30.642-18.47 58.303-49.090 61.819zM271.276 957.141c-8.433-2.163-16.777-4.537-25.050-7.079l32.131-106.891c6.764 2.079 13.573 4.055 20.455 5.816 17.54 4.434 50.15 9.514 48.58 9.313l-14.49 110.713c1.554 0.179-39.782-6.344-61.623-11.862zM841.603 433.1c-0.647-31.042-5.334-62.302-13.591-93.063l107.872-29.378c10.621 39.651 16.498 79.968 17.329 120.054 0.224 10.394 0.088 20.766-0.288 31.087l-111.578-3.679c0.317-8.318 0.443-16.648 0.261-25.014zM174.198 924.146l49.014-100.326c4.391 1.906 8.839 3.681 13.286 5.478l-41.312 103.667c-7.069-2.822-14.069-5.753-20.985-8.823zM722.372 161.995c-23.176-21.962-49.41-40.915-77.986-56.324-27.34-14.761-56.838-25.892-87.782-33.153-29.301-6.911-59.819-9.892-90.89-8.909-16.788 0.547-33.645 2.566-50.407 5.707l-20.17-109.726c22.246-4.14 44.611-6.797 66.977-7.543 5.073-0.161 10.172-0.224 15.263-0.224 35.647 0 70.875 4.073 104.788 12.053 40.428 9.482 79.211 24.148 115.229 43.531 37.22 20.086 71.443 44.83 101.766 73.535 4.663 4.434 9.045 9.106 13.529 13.691l-79.861 77.921c-3.476-3.553-6.851-7.147-10.465-10.562zM784.577 238.527c-10.394-17.005-22.418-33.127-35.604-48.42l84.755-72.58c17.051 19.801 32.603 40.684 46.114 62.733 16.156 26.41 29.728 54.194 40.677 82.955l-104.324 39.946c-8.489-22.341-19.005-44.028-31.606-64.627zM939.875 559.219l-108.807-25.195c2.995-12.758 5.287-25.723 7.001-38.849l110.782 14.849c-2.184 16.603-5.19 33.032-8.975 49.198zM561.083 952.443c-11.707 3.299-23.475 6.226-35.299 8.777l-23.551-109.133c9.526-2.061 19.005-4.399 28.438-7.064 5.933-1.687 11.793-3.721 17.674-5.669l35.364 106.037c-7.491 2.486-15.032 4.879-22.632 7.037zM437.505 973.099l-6.567-111.623c13.44-0.73 26.889-1.879 40.277-3.805l15.779 110.52c-16.448 2.379-32.964 3.996-49.5 4.906zM888.566 693.208c-22.951 41.573-50.907 79.552-83.099 112.793-33.382 34.559-70.875 64.41-111.388 88.685-20.798 12.505-42.315 23.565-64.398 33.182l-44.406-102.424c17.58-7.679 34.753-16.501 51.37-26.492 32.193-19.257 61.942-42.976 88.582-70.537 25.364-26.213 47.436-56.215 65.631-89.153 11.826-21.422 21.578-44.142 29.483-67.688l105.764 36.018c-10.027 29.766-22.521 58.454-37.54 85.621zM459.606 286.030c-6.005 0.853-12.308 2.391-18.476 4.37l-33.994-106.252c12.204-3.907 24.641-6.911 36.877-8.634 8.151-1.175 16.476-1.775 24.831-2.061l1.175 111.615c-3.505 0.21-6.978 0.493-10.4 0.97zM527.247 294.981c-9.511-4.029-20.585-7.064-31.36-8.762l16.888-110.268c20.046 3.112 40.001 8.618 58.144 16.281 2.734 1.175 5.445 2.528 8.141 3.822l-46.708 101.288c-1.697-0.802-3.401-1.651-5.096-2.356zM378.093 78.289c-27.438 8.385-53.913 20.522-78.648 36.060-23.43 14.727-45.221 32.863-64.693 53.829-4.325 4.673-8.47 9.526-12.514 14.481l-86.888-70.073c5.64-6.946 11.47-13.722 17.55-20.285 26.166-28.218 55.512-52.553 87.185-72.476 33.018-20.723 68.386-36.933 105.23-48.228l33.036 106.613c-0.075 0.057-0.166 0.071-0.261 0.088zM406.218 309.347c-6.365 5.201-12.741 12.118-17.573 19.114-4.116 5.866-7.914 13.4-10.542 21.047-1.999 5.761-3.441 13.347-3.822 20.452-0.005 0.061 0 0.121 0 0.161l-111.552-0.979c0.061-1.775 0-3.601 0.103-5.319 0.655-12.343 2.908-31.22 9.849-50.958 5.924-17.242 14.417-33.985 24.44-48.293 10.671-15.328 23.893-29.684 38.213-41.459 5.154-4.227 10.611-8.169 16.171-11.95l61.706 92.947c-2.415 1.685-4.802 3.422-7.001 5.237zM187.862 234.988c-12.134 23.239-21.215 48.315-27.039 74.583-5.497 24.668-7.666 50.371-6.446 76.488 1.133 24.367 5.654 48.985 13.468 73.288 7.079 22.163 17.754 44.55 30.93 64.754 1.716 2.647 3.645 5.218 5.478 7.8l-90.783 64.864c-2.762-3.916-5.623-7.753-8.228-11.756-18.786-28.843-33.486-59.709-43.678-91.588-10.813-33.568-17.107-67.963-18.697-102.211-1.673-35.972 1.366-71.581 8.981-105.825 7.927-35.8 20.382-70.118 37.071-102.11 5.028-9.604 10.475-18.894 16.156-28.027l94.558 59.273c-4.138 6.665-8.103 13.442-11.763 20.459zM244.17 576.897c16.361 14.639 35.076 27.307 55.503 37.597 5.933 2.965 12.134 5.619 18.425 8.129l-41.306 103.665c-9.218-3.665-18.317-7.588-27.168-12.026-29.351-14.752-56.264-33.018-79.903-54.187-13.211-11.836-25.481-24.562-36.822-37.983l85.096-72.241c8.129 9.589 16.894 18.732 26.172 27.046zM526.308 605.821l60.038 94.038c-15.477 9.799-31.483 18.393-47.971 25.38l-43.591-102.773c10.739-4.574 21.361-10.254 31.522-16.648zM573.859 564.698c11.025-12.843 20.792-28.090 28.349-44.164 6.88-14.606 12.084-31.146 15.017-47.982 2.642-14.861 3.23-31.305 1.727-47.531-1.346-14.381-4.948-29.684-10.286-43.88-5.048-13.206-12.175-26.262-20.598-37.761-7.767-10.616-17.471-20.666-28.179-29.143-0.082-0.061-0.195-0.141-0.306-0.195l68.696-87.967c0.342 0.243 0.683 0.486 0.999 0.721 18.401 14.606 35.299 32.12 48.854 50.669 14.195 19.359 26.231 41.418 34.909 64.126 8.873 23.645 14.783 48.862 17.065 73.087 2.469 26.47 1.448 52.52-2.934 77.233-4.604 26.37-12.894 52.764-23.971 76.196-11.862 25.308-26.889 48.628-44.492 69.125-9.186 10.813-19.005 20.895-29.331 30.226l-74.976-82.731c6.845-6.163 13.381-12.887 19.448-20.007zM352.783 633.54l-25.026 108.736c3.679 0.856 7.351 1.861 11.085 2.61 29.604 5.987 60.425 7.968 91.442 6.005 18.936-1.231 37.815-4.342 56.548-8.887l-25.949-108.544c-12.666 3.075-25.436 5.201-37.815 6.025-20.895 1.366-42.439-0.015-62.181-4.029-2.696-0.547-5.413-1.271-8.115-1.921z" horiz-adv-x="1021" />
<glyph unicode="&#xe900;" d="M1024 369.556l-512 397.426-512-397.428v162.038l512 397.426 512-397.428zM896 384v-384h-256v256h-256v-256h-256v384l384 288z" />
<glyph unicode="&#xe901;" d="M512 928l-512-512 96-96 96 96v-416h256v192h128v-192h256v416l96-96 96 96-512 512zM512 512c-35.346 0-64 28.654-64 64s28.654 64 64 64c35.346 0 64-28.654 64-64s-28.654-64-64-64z" />
<glyph unicode="&#xe902;" d="M1024 352l-192 192v288h-128v-160l-192 192-512-512v-32h128v-320h320v192h128v-192h320v320h128z" />
<glyph unicode="&#xe905;" d="M864 960c88.364 0 160-71.634 160-160 0-36.020-11.91-69.258-32-96l-64-64-224 224 64 64c26.742 20.090 59.978 32 96 32zM64 224l-64-288 288 64 592 592-224 224-592-592zM715.578 596.422l-448-448-55.156 55.156 448 448 55.156-55.156z" />
<glyph unicode="&#xe906;" d="M384 320l128 64 448 448-64 64-448-448-64-128zM289.3 92.902c-31.632 66.728-65.666 100.762-132.396 132.394l99.096 272.792 128 77.912 384 384h-192l-384-384-192-640 640 192 384 384v192l-384-384-77.912-128z" />
<glyph unicode="&#xe907;" d="M0-64c128 384 463 1024 1024 1024-263-211-384-704-576-704s-192 0-192 0l-192-320h-64z" />
<glyph unicode="&#xe90d;" d="M959.884 832c0.040-0.034 0.082-0.076 0.116-0.116v-767.77c-0.034-0.040-0.076-0.082-0.116-0.116h-895.77c-0.040 0.034-0.082 0.076-0.114 0.116v767.772c0.034 0.040 0.076 0.082 0.114 0.114h895.77zM960 896h-896c-35.2 0-64-28.8-64-64v-768c0-35.2 28.8-64 64-64h896c35.2 0 64 28.8 64 64v768c0 35.2-28.8 64-64 64v0zM832 672c0-53.020-42.98-96-96-96s-96 42.98-96 96 42.98 96 96 96 96-42.98 96-96zM896 128h-768v128l224 384 256-320h64l224 192z" />
<glyph unicode="&#xe90f;" d="M304 352c0-114.876 93.124-208 208-208s208 93.124 208 208-93.124 208-208 208-208-93.124-208-208zM960 704h-224c-16 64-32 128-96 128h-256c-64 0-80-64-96-128h-224c-35.2 0-64-28.8-64-64v-576c0-35.2 28.8-64 64-64h896c35.2 0 64 28.8 64 64v576c0 35.2-28.8 64-64 64zM512 68c-156.85 0-284 127.148-284 284 0 156.85 127.15 284 284 284 156.852 0 284-127.15 284-284 0-156.852-127.146-284-284-284zM960 512h-128v64h128v-64z" />
<glyph unicode="&#xe911;" d="M960 960h64v-736c0-88.366-100.29-160-224-160s-224 71.634-224 160c0 88.368 100.29 160 224 160 62.684 0 119.342-18.4 160-48.040v368.040l-512-113.778v-494.222c0-88.366-100.288-160-224-160s-224 71.634-224 160c0 88.368 100.288 160 224 160 62.684 0 119.342-18.4 160-48.040v624.040l576 128z" />
<glyph unicode="&#xe912;" d="M981.188 799.892c-143.632 20.65-302.332 32.108-469.186 32.108-166.86 0-325.556-11.458-469.194-32.108-27.53-107.726-42.808-226.75-42.808-351.892 0-125.14 15.278-244.166 42.808-351.89 143.638-20.652 302.336-32.11 469.194-32.11 166.854 0 325.552 11.458 469.186 32.11 27.532 107.724 42.812 226.75 42.812 351.89 0 125.142-15.28 244.166-42.812 351.892zM384.002 256v384l320-192-320-192z" />
<glyph unicode="&#xe913;" d="M0 832v-768h1024v768h-1024zM192 128h-128v128h128v-128zM192 384h-128v128h128v-128zM192 640h-128v128h128v-128zM768 128h-512v640h512v-640zM960 128h-128v128h128v-128zM960 384h-128v128h128v-128zM960 640h-128v128h128v-128zM384 640v-384l256 192z" />
<glyph unicode="&#xe93f;" d="M928 832h-832c-52.8 0-96-43.2-96-96v-576c0-52.8 43.2-96 96-96h832c52.8 0 96 43.2 96 96v576c0 52.8-43.2 96-96 96zM96 768h832c17.346 0 32-14.654 32-32v-96h-896v96c0 17.346 14.654 32 32 32zM928 128h-832c-17.346 0-32 14.654-32 32v288h896v-288c0-17.346-14.654-32-32-32zM128 320h64v-128h-64zM256 320h64v-128h-64zM384 320h64v-128h-64z" />
<glyph unicode="&#xe946;" d="M544 960l-96-96 96-96-224-256h-224l176-176-272-360.616v-39.384h39.384l360.616 272 176-176v224l256 224 96-96 96 96-480 480zM448 416l-64 64 224 224 64-64-224-224z" />
<glyph unicode="&#xe967;" d="M761.862-64c113.726 206.032 132.888 520.306-313.862 509.824v-253.824l-384 384 384 384v-248.372c534.962 13.942 594.57-472.214 313.862-775.628z" />
<glyph unicode="&#xe968;" d="M576 711.628v248.372l384-384-384-384v253.824c-446.75 10.482-427.588-303.792-313.86-509.824-280.712 303.414-221.1 789.57 313.86 775.628z" />
<glyph unicode="&#xe989;" d="M1024 960h-416l160-160-192-192 96-96 192 192 160-160zM1024-64v416l-160-160-192 192-96-96 192-192-160-160zM0-64h416l-160 160 192 192-96 96-192-192-160 160zM0 960v-416l160 160 192-192 96 96-192 192 160 160z" />
<glyph unicode="&#xe98a;" d="M576 512h416l-160 160 192 192-96 96-192-192-160 160zM576 384v-416l160 160 192-192 96 96-192 192 160 160zM448 384.004h-416l160-160-192-192 96-96 192 192 160-160zM448 512v416l-160-160-192 192-96-96 192-192-160-160z" />
<glyph unicode="&#xe98b;" d="M1024 960v-416l-160 160-192-192-96 96 192 192-160 160zM448 288l-192-192 160-160h-416v416l160-160 192 192z" />
<glyph unicode="&#xe98c;" d="M448 384v-416l-160 160-192-192-96 96 192 192-160 160zM1024 864l-192-192 160-160h-416v416l160-160 192 192z" />
<glyph unicode="&#xea7d;" d="M256 320c0 0 58.824 192 384 192v-192l384 256-384 256v-192c-256 0-384-159.672-384-320zM704 192h-576v384h125.876c10.094 11.918 20.912 23.334 32.488 34.18 43.964 41.19 96.562 72.652 156.114 93.82h-442.478v-640h832v268.624l-128-85.334v-55.29z" />
<glyph unicode="&#xea7e;" d="M192 896v-768h768v768h-768zM896 192h-640v640h640v-640zM128 64v672l-64 64v-800h800l-64 64h-672zM352 704l160-160-192-192 96-96 192 192 160-160v416z" />
<glyph unicode="&#xea82;" d="M864 256c-45.16 0-85.92-18.738-115.012-48.83l-431.004 215.502c1.314 8.252 2.016 16.706 2.016 25.328s-0.702 17.076-2.016 25.326l431.004 215.502c29.092-30.090 69.852-48.828 115.012-48.828 88.366 0 160 71.634 160 160s-71.634 160-160 160-160-71.634-160-160c0-8.622 0.704-17.076 2.016-25.326l-431.004-215.504c-29.092 30.090-69.852 48.83-115.012 48.83-88.366 0-160-71.636-160-160 0-88.368 71.634-160 160-160 45.16 0 85.92 18.738 115.012 48.828l431.004-215.502c-1.312-8.25-2.016-16.704-2.016-25.326 0-88.368 71.634-160 160-160s160 71.632 160 160c0 88.364-71.634 160-160 160z" />
<glyph unicode="&#xea87;" d="M789.534 896c0 0-200.956 0-267.94 0-120.122 0-233.17-91.006-233.17-196.422 0-107.726 81.882-194.666 204.088-194.666 8.498 0 16.756 0.17 24.84 0.752-7.928-15.186-13.6-32.288-13.6-50.042 0-29.938 16.104-54.21 36.468-74.024-15.386 0-30.242-0.448-46.452-0.448-148.782 0.002-263.3-94.76-263.3-193.022 0-96.778 125.542-157.312 274.334-157.312 169.624 0 263.306 96.244 263.306 193.028 0 77.602-22.896 124.072-93.686 174.134-24.216 17.142-70.532 58.836-70.532 83.344 0 28.72 8.196 42.868 51.428 76.646 44.312 34.624 75.674 83.302 75.674 139.916 0 67.406-30.022 133.098-86.374 154.772h84.956l59.96 43.344zM695.948 240.542c2.126-8.972 3.284-18.208 3.284-27.628 0-78.2-50.39-139.31-194.974-139.31-102.842 0-177.116 65.104-177.116 143.3 0 76.642 92.126 140.444 194.964 139.332 24-0.254 46.368-4.116 66.668-10.69 55.828-38.828 95.876-60.76 107.174-105.004zM531.286 532.224c-69.038 2.064-134.636 77.226-146.552 167.86-11.916 90.666 34.37 160.042 103.388 157.99 69.008-2.074 134.636-74.814 146.558-165.458 11.906-90.66-34.39-162.458-103.394-160.392z" />
<glyph unicode="&#xea88;" d="M559.066 896c0 0-200.956 0-267.94 0-120.12 0-233.17-91.006-233.17-196.422 0-107.726 81.882-194.666 204.088-194.666 8.498 0 16.756 0.17 24.842 0.752-7.93-15.186-13.602-32.288-13.602-50.042 0-29.938 16.104-54.21 36.468-74.024-15.386 0-30.242-0.448-46.452-0.448-148.782 0.002-263.3-94.758-263.3-193.020 0-96.778 125.542-157.314 274.334-157.314 169.624 0 263.306 96.244 263.306 193.028 0 77.6-22.896 124.072-93.686 174.134-24.216 17.144-70.53 58.836-70.53 83.344 0 28.72 8.196 42.868 51.428 76.646 44.312 34.624 75.672 83.302 75.672 139.916 0 67.406-30.020 133.098-86.372 154.772h84.954l59.96 43.344zM465.48 240.542c2.126-8.972 3.284-18.206 3.284-27.628 0-78.2-50.392-139.31-194.974-139.31-102.842 0-177.116 65.104-177.116 143.3 0 76.642 92.126 140.444 194.964 139.332 24-0.254 46.368-4.116 66.67-10.69 55.826-38.826 95.876-60.762 107.172-105.004zM300.818 532.224c-69.038 2.064-134.636 77.226-146.552 167.86-11.916 90.666 34.37 160.042 103.388 157.99 69.010-2.074 134.638-74.814 146.558-165.458 11.906-90.66-34.39-162.458-103.394-160.392zM832 704v192h-64v-192h-192v-64h192v-192h64v192h192v64z" />
<glyph unicode="&#xea89;" d="M0.806 90.336c-0.244 2.532-0.452 5.070-0.584 7.63 0.13-2.56 0.34-5.098 0.584-7.63zM235.908 394.852c92.010-2.738 153.734 92.698 137.862 213.198-15.894 120.48-103.396 217.168-195.408 219.922-92.026 2.73-153.74-89.482-137.852-210 15.882-120.468 103.352-220.374 195.398-223.12zM1024 704v85.31c0 93.88-76.782 170.69-170.658 170.69h-682.656c-92.276 0-168.012-74.232-170.564-165.926 58.362 51.386 139.324 94.316 222.874 94.316 89.304 0 357.244 0 357.244 0l-79.948-67.618h-113.268c75.13-28.804 115.156-116.124 115.156-205.722 0-75.248-41.81-139.954-100.888-185.968-57.644-44.902-68.572-63.708-68.572-101.878 0-32.578 61.746-88 94.032-110.788 94.382-66.538 124.916-128.312 124.916-231.456 0-16.428-2.042-32.83-6.066-48.96h307.742c93.874 0 170.656 76.75 170.656 170.69v533.308h-192v-191.998h-64v192h-191.998v64h191.998v192h64v-192h192zM185.886 194.064c21.614 0 41.422 0.59 61.936 0.59-27.146 26.334-48.626 58.6-48.626 98.38 0 23.608 7.564 46.336 18.134 66.52-10.782-0.77-21.79-0.994-33.126-0.994-74.356 0-137.506 24.076-184.204 63.854v-67.242l0.006-201.73c53.44 25.374 116.888 40.622 185.88 40.622zM3.42 72.742c-1.112 5.458-1.966 11.006-2.542 16.634 0.574-5.628 1.43-11.176 2.542-16.634zM455.45 7.154c-15.058 58.806-68.454 87.964-142.888 139.568-27.072 8.732-56.894 13.874-88.894 14.208-89.618 0.964-173.108-34.942-220.216-88.372 15.92-77.706 85.034-136.558 167.234-136.558h286.444c1.816 11.128 2.696 22.632 2.696 34.432 0 12.534-1.534 24.792-4.376 36.722z" />
<glyph unicode="&#xea8c;" d="M672 768c-88.366 0-160-71.634-160-160v-96h-128v-128h128v-448h128v448h144l32 128h-176v96c0 17.672 14.326 32 32 32h160v128h-160z" />
<glyph unicode="&#xea8d;" d="M853.35 960h-682.702c-94.25 0-170.648-76.42-170.648-170.686v-682.63c0-94.266 76.398-170.684 170.648-170.684h341.352v448h-128v128h128v96c0 88.366 71.634 160 160 160h160v-128h-160c-17.674 0-32-14.328-32-32v-96h176l-32-128h-144v-448h213.35c94.25 0 170.65 76.418 170.65 170.684v682.63c0 94.266-76.4 170.686-170.65 170.686z" />
<glyph unicode="&#xea91;" d="M1024 765.582c-37.676-16.708-78.164-28.002-120.66-33.080 43.372 26 76.686 67.17 92.372 116.23-40.596-24.078-85.556-41.56-133.41-50.98-38.32 40.83-92.922 66.34-153.346 66.34-116.022 0-210.088-94.058-210.088-210.078 0-16.466 1.858-32.5 5.44-47.878-174.6 8.764-329.402 92.4-433.018 219.506-18.084-31.028-28.446-67.116-28.446-105.618 0-72.888 37.088-137.192 93.46-174.866-34.438 1.092-66.832 10.542-95.154 26.278-0.020-0.876-0.020-1.756-0.020-2.642 0-101.788 72.418-186.696 168.522-206-17.626-4.8-36.188-7.372-55.348-7.372-13.538 0-26.698 1.32-39.528 3.772 26.736-83.46 104.32-144.206 196.252-145.896-71.9-56.35-162.486-89.934-260.916-89.934-16.958 0-33.68 0.994-50.116 2.94 92.972-59.61 203.402-94.394 322.042-94.394 386.422 0 597.736 320.124 597.736 597.744 0 9.108-0.206 18.168-0.61 27.18 41.056 29.62 76.672 66.62 104.836 108.748z" />
<glyph unicode="&#xea92;" d="M853.342 960h-682.656c-93.874 0-170.686-76.81-170.686-170.69v-682.624c0-93.936 76.812-170.686 170.686-170.686h682.656c93.876 0 170.658 76.75 170.658 170.69v682.62c0 93.88-76.782 170.69-170.658 170.69zM766.478 578.52c0.252-5.632 0.38-11.296 0.38-16.988 0-173.51-132.070-373.588-373.584-373.588-74.15 0-143.168 21.738-201.276 58.996 10.272-1.218 20.724-1.84 31.322-1.84 61.518 0 118.134 20.992 163.072 56.21-57.458 1.054-105.948 39.020-122.658 91.184 8.018-1.532 16.244-2.36 24.704-2.36 11.976 0 23.578 1.61 34.592 4.61-60.064 12.066-105.326 65.132-105.326 128.75 0 0.554 0 1.104 0.012 1.652 17.7-9.834 37.948-15.742 59.47-16.424-35.232 23.546-58.414 63.736-58.414 109.292 0 24.064 6.476 46.62 17.78 66.010 64.76-79.44 161.51-131.712 270.634-137.19-2.238 9.612-3.4 19.632-3.4 29.924 0 72.512 58.792 131.298 131.304 131.298 37.766 0 71.892-15.944 95.842-41.462 29.908 5.886 58.008 16.814 83.38 31.862-9.804-30.662-30.624-56.394-57.732-72.644 26.56 3.174 51.866 10.232 75.412 20.674-17.594-26.328-39.854-49.454-65.514-67.966z" />
<glyph unicode="&#xea99;" d="M293.188 960l-69.188-137.234-69.188 137.234h-88.248l124.71-217.314 0.726 0.43v-167.116h64v167.116l0.726-0.43 124.71 217.314zM480 832c17.346 0 32-14.654 32-32v-128c0-17.346-14.654-32-32-32s-32 14.654-32 32v128c0 17.346 14.654 32 32 32zM480 896c-52.8 0-96-43.2-96-96v-128c0-52.8 43.2-96 96-96s96 43.2 96 96v128c0 52.8-43.2 96-96 96v0zM768 896v-251.968c-27.922-23.288-64-37.332-64 45.634v206.334h-64v-219.324h0.096c0.986-52.91 12.142-148.168 127.904-70.712v-29.964h64v320h-64zM864 256c-17.644 0-32-14.356-32-32v-32h64v32c0 17.644-14.356 32-32 32zM576 224v-168c21.666-21.666 64-24 64 8s0 118 0 150-32 42-64 10zM1018.766 378.46c-2.792 36.862-16.046 66.942-39.778 90.244-23.726 23.298-54.080 35.994-91.068 38.080-69.784 3.478-229.452 5.216-369.716 5.216-140.266 0-311.294-1.738-381.078-5.216-36.986-2.086-67.342-14.782-91.068-38.080-23.728-23.302-36.988-53.382-39.778-90.244-4.188-75.116-6.28-102.352-6.28-139.91 0-37.56 2.092-93.894 6.28-169.012 2.792-36.862 16.050-66.944 39.778-90.244 23.726-23.298 54.082-35.992 91.068-38.080 69.782-3.476 240.81-5.214 381.078-5.214 140.266 0 299.934 1.738 369.716 5.214 36.988 2.088 67.342 14.782 91.068 38.080 23.73 23.3 36.986 53.382 39.778 90.244 3.49 62.598 5.234 118.934 5.234 169.012 0 50.076-1.744 77.314-5.234 139.91zM192 0h-64v320h-64v64h192v-64h-64v-320zM448 0h-64v29.962c-121.666-68.294-126.918-2.198-127.904 50.712h-0.096v175.326h64v-176.334c0-38.666 36.078-34.924 64-11.634v187.968h64v-256zM704 64.914c0-66.892-68.504-86.402-128-34.39v-30.524h-64v384h64v-104c64 64 128 40 128-24s0-121.172 0-191.086zM960 192v-32h-128v-64c0-17.644 14.356-32 32-32s32 14.356 32 32v32h64v-32c0-52.934-43.066-96-96-96s-96 43.066-96 96v128c0 52.934 43.066 96 96 96s96-43.066 96-96v-32z" />
<glyph unicode="&#xeaaf;" d="M736 928l-224-192 288-192 224 192zM512 736l-224 192-288-192 224-192zM800 544l224-192-288-160-224 192zM512 384l-288 160-224-192 288-160zM728.156 114.43l-216.156 185.278-216.158-185.278-135.842 75.468v-93.898l352-160 352 160v93.898z" />
<glyph unicode="&#xeada;" d="M842.012 370.52c-13.648 13.446-43.914 20.566-89.972 21.172-31.178 0.344-68.702-2.402-108.17-7.928-17.674 10.198-35.892 21.294-50.188 34.658-38.462 35.916-70.568 85.772-90.576 140.594 1.304 5.12 2.414 9.62 3.448 14.212 0 0 21.666 123.060 15.932 164.666-0.792 5.706-1.276 7.362-2.808 11.796l-1.882 4.834c-5.894 13.592-17.448 27.994-35.564 27.208l-10.916 0.344c-20.202 0-36.664-10.332-40.986-25.774-13.138-48.434 0.418-120.892 24.98-214.738l-6.288-15.286c-17.588-42.876-39.63-86.060-59.078-124.158l-2.528-4.954c-20.46-40.040-39.026-74.028-55.856-102.822l-17.376-9.188c-1.264-0.668-31.044-16.418-38.028-20.644-59.256-35.38-98.524-75.542-105.038-107.416-2.072-10.17-0.53-23.186 10.014-29.212l16.806-8.458c7.292-3.652 14.978-5.502 22.854-5.502 42.206 0 91.202 52.572 158.698 170.366 77.93 25.37 166.652 46.458 244.412 58.090 59.258-33.368 132.142-56.544 178.142-56.544 8.168 0 15.212 0.78 20.932 2.294 8.822 2.336 16.258 7.368 20.792 14.194 8.926 13.432 10.734 31.932 8.312 50.876-0.72 5.622-5.21 12.574-10.068 17.32zM211.646 145.952c7.698 21.042 38.16 62.644 83.206 99.556 2.832 2.296 9.808 8.832 16.194 14.902-47.104-75.124-78.648-105.066-99.4-114.458zM478.434 760.314c13.566 0 21.284-34.194 21.924-66.254s-6.858-54.56-16.158-71.208c-7.702 24.648-11.426 63.5-11.426 88.904 0 0-0.566 48.558 5.66 48.558v0zM398.852 322.506c9.45 16.916 19.282 34.756 29.33 53.678 24.492 46.316 39.958 82.556 51.478 112.346 22.91-41.684 51.444-77.12 84.984-105.512 4.186-3.542 8.62-7.102 13.276-10.65-68.21-13.496-127.164-29.91-179.068-49.862v0zM828.902 326.348c-4.152-2.598-16.052-4.1-23.708-4.1-24.708 0-55.272 11.294-98.126 29.666 16.468 1.218 31.562 1.838 45.102 1.838 24.782 0 32.12 0.108 56.35-6.072 24.228-6.18 24.538-18.734 20.382-21.332v0zM917.806 730.924c-22.21 30.292-53.174 65.7-87.178 99.704s-69.412 64.964-99.704 87.178c-51.574 37.82-76.592 42.194-90.924 42.194h-496c-44.112 0-80-35.888-80-80v-864c0-44.112 35.886-80 80-80h736c44.112 0 80 35.888 80 80v624c0 14.332-4.372 39.35-42.194 90.924v0zM785.374 785.374c30.7-30.7 54.8-58.398 72.58-81.374h-153.954v153.946c22.982-17.78 50.678-41.878 81.374-72.572v0zM896 16c0-8.672-7.328-16-16-16h-736c-8.672 0-16 7.328-16 16v864c0 8.672 7.328 16 16 16 0 0 495.956 0.002 496 0v-224c0-17.672 14.324-32 32-32h224v-624z" />
<glyph unicode="&#xeae5;" d="M258.278 513.458l-146.532 253.802c93.818 117.464 238.234 192.74 400.254 192.74 187.432 0 351.31-100.736 440.532-251h-417.77c-7.504 0.65-15.092 1-22.762 1-121.874 0-224.578-83.644-253.722-196.542zM695.306 635h293.46c22.74-57.93 35.234-121.004 35.234-187 0-280.826-226.1-508.804-506.186-511.926l209.394 362.678c29.48 42.378 46.792 93.826 46.792 149.248 0 73.17-30.164 139.42-78.694 187zM326 448c0 102.56 83.44 186 186 186s186-83.44 186-186c0-102.56-83.44-186-186-186s-186 83.44-186 186zM582.182 195.558l-146.578-253.878c-246.532 36.884-435.604 249.516-435.604 506.32 0 91.218 23.884 176.846 65.696 251.024l209.030-362.054c41.868-89.112 132.476-150.97 237.274-150.97 24.3 0 47.836 3.34 70.182 9.558z" />
<glyph unicode="&#xeae6;" d="M1022.526 625.86l-11.86-76.080c0 0-16.954 140.856-37.732 193.514-31.846 80.688-46.014 80.040-46.108 79.922 21.33-54.204 17.462-83.324 17.462-83.324s-37.792 102.998-137.712 135.768c-110.686 36.282-170.57 26.364-177.488 24.486-1.050 0.008-2.064 0.010-3.030 0.010 0.818-0.062 1.612-0.146 2.426-0.212-0.034-0.020-0.090-0.042-0.082-0.052 0.45-0.548 122.306-21.302 143.916-50.996 0 0-51.76 0-103.272-14.842-2.328-0.666 189.524-23.964 228.746-215.674 0 0-21.030 43.876-47.040 51.328 17.106-52.036 12.714-150.776-3.576-199.85-2.096-6.312-4.24 27.282-36.328 41.75 10.28-73.646-0.616-190.456-51.708-222.632-3.982-2.504 32.030 115.31 7.242 69.762-142.708-218.802-311.404-100.972-387.248-49.11 38.866-8.462 112.654 1.318 145.314 25.612 0.042 0.030 0.078 0.056 0.118 0.086 35.468 24.252 56.472 41.964 75.334 37.772 18.874-4.214 31.438 14.726 16.78 31.53-14.676 16.838-50.314 39.978-98.524 27.366-34-8.904-76.134-46.522-140.448-8.432-49.364 29.25-54.012 53.546-54.45 70.376 1.218 5.966 2.754 11.536 4.576 16.624 5.682 15.87 22.912 20.658 32.494 24.438 16.256-2.792 30.262-7.862 44.968-15.406 0.19 4.894 0.252 11.39-0.018 18.76 1.41 2.802 0.538 11.252-1.722 21.58-1.302 10.308-3.42 20.974-6.752 30.692 0.012 0.002 0.020 0.010 0.030 0.014 0.056 0.018 0.108 0.040 0.156 0.070 0.078 0.044 0.146 0.112 0.208 0.19 0.012 0.020 0.030 0.034 0.044 0.052 0.082 0.124 0.154 0.272 0.198 0.466 1.020 4.618 12.022 13.524 25.718 23.1 12.272 8.58 26.702 17.696 38.068 24.752 10.060 6.248 17.72 10.882 19.346 12.098 0.618 0.466 1.358 1.012 2.164 1.636 0.15 0.116 0.3 0.232 0.454 0.354 0.094 0.074 0.19 0.148 0.286 0.226 5.41 4.308 13.484 12.448 15.178 29.578 0.004 0.042 0.010 0.080 0.012 0.122 0.050 0.504 0.092 1.014 0.13 1.534 0.028 0.362 0.050 0.726 0.072 1.096 0.014 0.284 0.032 0.566 0.044 0.856 0.030 0.674 0.050 1.364 0.060 2.064 0 0.040 0.002 0.076 0.004 0.116 0.022 1.658-0.006 3.386-0.104 5.202-0.054 1.014-0.126 1.93-0.298 2.762-0.008 0.044-0.018 0.092-0.028 0.136-0.018 0.082-0.036 0.164-0.058 0.244-0.036 0.146-0.076 0.292-0.122 0.43-0.006 0.018-0.010 0.032-0.016 0.046-0.052 0.16-0.112 0.314-0.174 0.464-0.004 0.006-0.004 0.010-0.006 0.016-1.754 4.108-8.32 5.658-35.442 6.118-0.026 0.002-0.050 0.002-0.076 0.002v0c-11.066 0.188-25.538 0.194-44.502 0.118-33.25-0.134-51.628 32.504-57.494 45.132 8.040 44.46 31.276 76.142 69.45 97.626 0.722 0.406 0.58 0.742-0.274 0.978 7.464 4.514-90.246 0.124-135.186-57.036-39.888 9.914-74.654 9.246-104.616 2.214-5.754 0.162-12.924 0.88-21.434 2.652-19.924 18.056-48.448 51.402-49.976 91.208 0 0-0.092-0.072-0.252-0.204-0.020 0.382-0.056 0.76-0.072 1.142 0 0-60.716-46.664-51.628-173.882-0.022-2.036-0.064-3.986-0.12-5.874-16.432-22.288-24.586-41.020-25.192-45.156-14.56-29.644-29.334-74.254-41.356-141.98 0 0 8.408 26.666 25.284 56.866-12.412-38.022-22.164-97.156-16.436-185.856 0 0 1.514 19.666 6.874 47.994 4.186-55.010 22.518-122.924 68.858-202.788 88.948-153.32 225.67-230.74 376.792-242.616 26.836-2.212 54.050-2.264 81.424-0.186 2.516 0.178 5.032 0.364 7.55 0.574 30.964 2.174 62.134 6.852 93.238 14.366 425.172 102.798 378.942 616.198 378.942 616.198z" />
<glyph unicode="&#xeae7;" d="M734.202 331.17h236.050c1.82 16.37 2.548 33.098 2.548 50.196 0 80.224-21.534 155.468-59.124 220.266 38.88 103.308 37.492 190.988-14.556 243.39-49.496 49.28-182.29 41.28-332.412-25.198-11.104 0.84-22.318 1.272-33.638 1.272-206.048 0-378.926-141.794-426.708-332.85 64.638 82.754 132.638 142.754 223.478 186.448-8.26-7.74-56.454-55.652-64.56-63.764-239.548-239.478-315.090-552.306-233.806-633.604 61.786-61.774 173.758-51.342 302.376 11.648 59.806-30.458 127.5-47.63 199.218-47.63 193.134 0 356.804 124.316 416.090 297.448h-237.868c-32.734-60.382-96.748-101.48-170.218-101.48-73.468 0-137.484 41.098-170.216 101.48-14.55 27.274-22.914 58.554-22.914 91.656v0.722h386.26zM348.302 447.196c5.456 97.11 86.2 174.584 184.766 174.584s179.312-77.472 184.766-174.584h-369.532zM896.966 796.192c33.526-33.88 32.688-96.214 4.012-174.022-49.136 74.908-120.518 133.936-204.792 167.64 90.106 38.638 163.406 43.756 200.78 6.382zM93.482-7.256c-42.782 42.796-29.884 132.618 25.23 240.832 34.308-96.27 101.156-177.090 187.336-229.154-95.43-43.318-173.536-50.674-212.566-11.678z" />
<glyph unicode="&#xeae8;" d="M510.046 960c-279.724 0-480.748-202.896-480.748-507.224 0-270.818 195.502-516.776 480.784-516.776 288.078 0 484.62 245.886 484.62 516.776 0 306.76-207.446 507.224-484.656 507.224zM688.358 461.458c-0.068-169.352-9.098-410.482-178.276-410.482v-0.034c-166.784 0-173.432 241.266-173.432 410.308 0 198.38 18.56 388.568 173.432 388.568 154.874 0 178.276-192.584 178.276-388.36z" />
<glyph unicode="&#xeae9;" d="M512 896c-24.064 0-47.708-1.792-70.824-5.212-0.3 0.782-0.624 1.548-0.982 2.296 12.826 10.002 19.55 23.83 16.634 37.552-3.734 17.564-22.394 29.364-46.434 29.364-5.18 0-10.458-0.562-15.68-1.672-30.168-6.414-50.146-28.622-45.482-50.562 2.834-13.338 14.292-23.338 30.164-27.384-0.032-0.972-0.016-1.95 0.042-2.934-200.622-57.53-347.438-242.338-347.438-461.448 0-265.098 214.904-480 480-480 265.098 0 480 214.902 480 480 0 265.096-214.902 480-480 480zM364.882 911.092c-2.706 12.726 12.48 27.19 33.158 31.584 4.132 0.878 8.29 1.324 12.354 1.324 16.036 0 28.694-6.864 30.784-16.69 1.596-7.51-3.070-15.61-11.386-21.904-7.034 4.966-16.016 7.126-25.1 5.196-9.044-1.922-16.348-7.508-20.758-14.856-10.184 2.45-17.508 8.084-19.052 15.346zM769.386 158.614c-43.968-43.968-97.21-75.278-155.31-92.154l-42.396 68.768-10.746-79.958c-16.090-2.152-32.426-3.27-48.934-3.27-97.228 0-188.636 37.864-257.386 106.614-43.968 43.966-75.278 97.21-92.154 155.308l68.768 42.398-79.96 10.746c-2.15 16.090-3.268 32.426-3.268 48.934 0 97.228 37.862 188.636 106.614 257.386 43.968 43.968 97.212 75.278 155.31 92.156l42.396-68.77 10.748 79.96c16.088 2.15 32.424 3.268 48.932 3.268 97.228 0 188.636-37.862 257.386-106.614 43.968-43.968 75.278-97.212 92.154-155.31l-68.77-42.398 79.96-10.746c2.152-16.088 3.27-32.424 3.27-48.932 0-97.228-37.864-188.636-106.614-257.386zM760.902 664.902l-196.978-149.704c-14.644 7.658-30.876 12.062-47.416 12.726l-51.080 107.18-3.068-118.664c-13.284-6.536-25.104-15.664-34.876-26.95l-63.088 22.364 46.092-48.538c-6.334-13.518-9.866-28.030-10.434-42.824l-107.158-51.066 118.738-3.068c0.38-0.768 0.774-1.526 1.17-2.282l-149.704-196.98 196.978 149.704c14.644-7.656 30.874-12.060 47.416-12.724l51.080-107.182 3.066 118.664c13.286 6.538 25.106 15.664 34.878 26.952l63.090-22.368-46.094 48.54c6.336 13.52 9.868 28.030 10.436 42.824l107.156 51.066-118.736 3.070c-0.378 0.766-0.774 1.524-1.17 2.28l149.702 196.98zM512.102 515.466v0zM492.042 509.902c6.726 1.43 13.444 2.118 20.056 2.118 4.144 0 8.25-0.27 12.294-0.796l0.092-0.032-0.010 0.022c8.732-1.144 17.176-3.5 25.132-6.896l-71.546-54.376-54.38-71.552c-2.376 5.594-4.27 11.484-5.58 17.652-11.026 51.86 22.080 102.836 73.942 113.86zM562.12 334.116v0 0c-9.056-5.544-19.182-9.684-30.16-12.018-6.726-1.43-13.444-2.118-20.054-2.118-4.15 0-8.258 0.272-12.308 0.798l-0.068 0.010c-8.734 1.142-17.174 3.5-25.132 6.894l71.544 54.376 54.38 71.554c2.376-5.594 4.27-11.486 5.58-17.654 8.69-40.882-10.056-81.2-43.782-101.842z" />
</font>
</defs>
</svg>
